<?xml version="1.0" standalone="no"?>
<!DOCTYPE svg PUBLIC "-//W3C//DTD SVG 1.1//EN" "http://www.w3.org/Graphics/SVG/1.1/DTD/svg11.dtd" >
<svg xmlns="http://www.w3.org/2000/svg">
<metadata></metadata>
<defs>
<font id="amaranthregular" horiz-adv-x="1036" >
<font-face units-per-em="2048" ascent="1536" descent="-512" />
<missing-glyph horiz-adv-x="450" />
<glyph horiz-adv-x="2048" />
<glyph horiz-adv-x="2048" />
<glyph unicode="&#xd;" horiz-adv-x="2048" />
<glyph unicode=" "  horiz-adv-x="450" />
<glyph unicode="&#x09;" horiz-adv-x="450" />
<glyph unicode="&#xa0;" horiz-adv-x="450" />
<glyph unicode="!" horiz-adv-x="675" d="M115 121q0 72 46 122t122 50q69 0 105 -38t36 -105q0 -71 -47 -122t-123 -51q-68 0 -103.5 39t-35.5 105zM219 451l172 919h254l-229 -919h-197z" />
<glyph unicode="&#x22;" horiz-adv-x="790" d="M164 872l80 498h190l-110 -498h-160zM500 872l80 498h190l-111 -498h-159z" />
<glyph unicode="#" horiz-adv-x="1267" d="M41 295l51 158h201l98 317h-215l53 160h213l88 278h170l-88 -278h234l90 278h168l-88 -278h190l-51 -160h-190l-99 -317h205l-53 -158h-201l-92 -295h-168l92 295h-235l-92 -295h-170l92 295h-203zM461 453h235l101 317h-236z" />
<glyph unicode="$" horiz-adv-x="1087" d="M20 266l173 92q34 -69 89.5 -110t127.5 -41q223 0 223 170q0 112 -121 186l-143 88q-85 52 -121.5 118t-36.5 161q0 132 93 222t251 110l31 159h162l-31 -159q61 -8 107 -28t73 -49.5t42 -55.5t26 -60l-174 -94q-1 2 -8.5 18t-11.5 22t-13.5 20t-20 20.5t-26 15.5 t-35.5 12.5t-45 3.5q-80 0 -128 -37t-48 -94q0 -54 21.5 -88.5t72.5 -66.5l153 -94q74 -47 121 -119t47 -162q0 -167 -107.5 -272.5t-279.5 -128.5l-37 -195h-159l35 197q-110 20 -190 83t-112 156z" />
<glyph unicode="%" horiz-adv-x="1732" d="M113 719q0 138 45 248t135.5 176.5t212.5 66.5q128 0 186 -70t58 -177q0 -136 -45 -246t-136 -177t-213 -67q-67 0 -116 20.5t-75.5 56t-39 77.5t-12.5 92zM313 709q0 -51 16 -72t50 -21q46 0 86.5 60t62 141.5t21.5 155.5q0 94 -70 94q-46 0 -85.5 -60t-60 -141.5 t-20.5 -156.5zM354 0l768 1202h205l-770 -1202h-203zM942 240q0 138 45 248t135.5 176.5t212.5 66.5q66 0 115 -20.5t76.5 -57t40 -78.5t12.5 -92q0 -136 -45 -245.5t-135.5 -176.5t-212.5 -67q-129 0 -186.5 69.5t-57.5 176.5zM1143 229q0 -52 15.5 -72t49.5 -20 q46 0 86.5 60t62 141.5t21.5 155.5q0 94 -69 94q-46 0 -85.5 -60t-60 -142t-20.5 -157z" />
<glyph unicode="&#x26;" horiz-adv-x="1134" d="M10 289q0 166 76 274t223 187q-16 49 -16 110q0 71 25 134t72.5 114t125.5 81t176 30q93 0 150.5 -44t99.5 -124l-143 -105q-16 35 -48.5 58.5t-74.5 23.5q-72 0 -111 -41.5t-39 -107.5q0 -157 238 -437q48 59 135 187l150 -101q-68 -130 -150 -239q98 -106 154 -162 l-133 -137q-30 31 -87 87.5t-71 69.5q-187 -159 -426 -159q-143 0 -234.5 82.5t-91.5 218.5zM256 342q0 -67 41.5 -110.5t116.5 -43.5q94 0 209 103q-169 176 -244 303q-64 -59 -93.5 -116t-29.5 -136z" />
<glyph unicode="'" horiz-adv-x="454" d="M164 872l80 498h190l-110 -498h-160z" />
<glyph unicode="(" horiz-adv-x="768" d="M113 281q0 352 164.5 678.5t455.5 527.5l96 -139q-230 -171 -360.5 -457.5t-130.5 -589.5q0 -104 18 -197t48 -161t60 -114.5t62 -80.5l-139 -125q-42 36 -86.5 94.5t-88 141t-71.5 194t-28 228.5z" />
<glyph unicode=")" horiz-adv-x="747" d="M-82 -238q231 171 361.5 457t130.5 590q0 104 -18 197t-48.5 161t-60.5 114.5t-62 80.5l141 125q42 -36 85.5 -94.5t87.5 -141t72 -194t28 -228.5q0 -351 -164.5 -678t-454.5 -528z" />
<glyph unicode="*" horiz-adv-x="874" d="M164 1077l67 160l201 -86l33 240l178 -19l-61 -221l227 90l45 -166l-252 -71l125 -197l-156 -98l-106 209l-160 -203l-131 114l186 179z" />
<glyph unicode="+" horiz-adv-x="1058" d="M113 522l34 178h293l60 314h188l-59 -314h295l-33 -178h-297l-62 -325h-186l62 325h-295z" />
<glyph unicode="," horiz-adv-x="507" d="M-123 -188q184 121 184 303q0 83 -6 135q5 4 15.5 10t46.5 16.5t78 10.5q108 0 108 -111q0 -94 -57.5 -193.5t-137.5 -171.5t-163 -112z" />
<glyph unicode="-" horiz-adv-x="757" d="M82 561l35 170h559l-33 -170h-561z" />
<glyph unicode="." horiz-adv-x="473" d="M-10 121q0 71 46 121.5t120 50.5q71 0 107 -37.5t36 -105.5q0 -71 -47 -122t-123 -51q-68 0 -103.5 39t-35.5 105z" />
<glyph unicode="/" horiz-adv-x="821" d="M-162 -258l955 1751h235l-960 -1751h-230z" />
<glyph unicode="0" horiz-adv-x="1173" d="M82 367q0 150 25 286.5t77.5 254.5t127 204.5t179 136t228.5 49.5q185 0 279 -101.5t94 -291.5q0 -149 -25 -286t-77.5 -255t-127 -205t-179 -136.5t-228.5 -49.5q-185 0 -279 102t-94 292zM332 403q0 -251 155 -251q82 0 151 65t112.5 169.5t67.5 230t24 251.5 q0 252 -156 252q-82 0 -150.5 -65t-112 -170t-67.5 -230.5t-24 -251.5z" />
<glyph unicode="1" horiz-adv-x="770" d="M61 1032q68 19 111 34t104.5 43t121.5 70.5t124 102.5h176l-247 -1282h-238l197 1008q-158 -107 -279 -144z" />
<glyph unicode="2" horiz-adv-x="1021" d="M-10 0v186l329 312q10 10 30 28q64 61 93.5 89.5t74.5 73t63.5 67.5t43.5 57t34.5 58.5t16.5 54.5t7 61q0 131 -121 131q-72 0 -135 -22.5t-172 -77.5l-66 164q231 114 418 114q162 0 248 -71t86 -201q0 -64 -21.5 -127t-44.5 -106.5t-87.5 -114.5t-98.5 -104.5 t-129 -122.5q-22 -21 -33 -31l-250 -232h539l-37 -186h-788z" />
<glyph unicode="3" horiz-adv-x="995" d="M-51 90l84 174q69 -37 105 -54t87.5 -30.5t106.5 -13.5q115 0 189.5 73.5t74.5 202.5q0 76 -35.5 123t-103.5 47q-67 0 -199 -24l-33 160l80 27.5t78.5 26.5t70 25t64 27.5t51.5 30.5t42 36.5t24.5 42.5t9.5 52q0 39 -28.5 70.5t-77.5 31.5q-48 0 -97.5 -13.5t-87 -30.5 t-114.5 -56l-68 164q130 63 216 89.5t200 26.5q160 0 232.5 -69t72.5 -180q0 -46 -13 -89.5t-41 -85.5t-79.5 -74.5t-120.5 -47.5q102 -33 152.5 -113t50.5 -172q0 -99 -35 -185.5t-101 -152t-169 -103.5t-230 -38q-194 0 -358 102z" />
<glyph unicode="4" horiz-adv-x="1069" d="M33 358v134l508 806h231l-485 -761h307l80 417l248 43l-91 -460h166l-34 -179h-166l-70 -358h-235l67 358h-526z" />
<glyph unicode="5" horiz-adv-x="987" d="M-20 90l86 174q69 -37 105 -54t87.5 -30.5t106.5 -13.5q264 0 264 276q0 203 -156 203q-50 0 -98.5 -9t-76 -18t-83.5 -30l-80 71l182 623h637l-34 -186h-441l-96 -310q73 41 156 41q89 0 156 -32.5t104 -87t55 -115.5t18 -127q0 -234 -136 -355.5t-398 -121.5 q-190 0 -358 102z" />
<glyph unicode="6" horiz-adv-x="1058" d="M84 365q0 152 23 287t74.5 254.5t127.5 205.5t188 136t251 50q125 0 229 -55l-68 -162q-81 37 -204 37q-130 0 -216 -111.5t-124 -291.5q131 131 292 131q84 0 145.5 -24.5t96 -67.5t50.5 -95t16 -114q0 -257 -141.5 -414.5t-368.5 -157.5q-185 0 -278 101.5t-93 290.5z M332 403q0 -251 155 -251q113 0 178.5 103t65.5 249q0 166 -151 166q-108 0 -240 -95q-8 -76 -8 -172z" />
<glyph unicode="7" horiz-adv-x="886" d="M33 0l585 1096h-493l-37 186h817v-147l-608 -1135h-264z" />
<glyph unicode="8" d="M41 242q0 261 315 432q-149 100 -149 235q0 167 127.5 278t331.5 111q145 0 232 -68t87 -179q0 -67 -21.5 -124t-62 -101.5t-83 -77t-99.5 -64.5q82 -52 132 -134t50 -171t-41.5 -166t-110.5 -128.5t-158.5 -80.5t-184.5 -29q-165 0 -265 69.5t-100 197.5zM283 270 q0 -57 45.5 -95t122.5 -38q83 0 142.5 62t59.5 153q0 114 -133 234q-237 -136 -237 -316zM442 938q0 -104 111 -168q88 43 140 99t52 145q0 56 -29.5 89.5t-90.5 33.5q-85 0 -134 -53.5t-49 -145.5z" />
<glyph unicode="9" horiz-adv-x="1060" d="M84 29l68 161q79 -36 202 -36q130 0 216 111.5t126 291.5q-136 -131 -293 -131q-84 0 -145 24.5t-95.5 67.5t-50.5 95t-16 114q0 257 141.5 414t368.5 157q185 0 278 -102t93 -291q0 -152 -23 -287t-74.5 -254.5t-127.5 -205t-188 -135.5t-251 -50q-123 0 -229 56z M330 768q0 -166 151 -166q47 0 102.5 20.5t85 38.5t48.5 33q10 98 10 174q0 252 -154 252q-113 0 -178 -103t-65 -249z" />
<glyph unicode=":" horiz-adv-x="614" d="M72 121q0 71 46 121.5t120 50.5q71 0 107 -37.5t36 -105.5q0 -71 -47 -122t-123 -51q-68 0 -103.5 39t-35.5 105zM213 846q0 73 46 123.5t120 50.5q71 0 107 -38.5t36 -107.5q0 -70 -47 -119.5t-123 -49.5q-68 0 -103.5 38.5t-35.5 102.5z" />
<glyph unicode=";" horiz-adv-x="618" d="M-63 -188q184 121 184 303q0 83 -6 135q5 4 15 10t46 16.5t78 10.5q108 0 108 -111q0 -71 -33.5 -147t-86.5 -138.5t-114.5 -112.5t-121.5 -79zM186 846q0 73 45 123.5t121 50.5q70 0 106 -38.5t36 -107.5q0 -70 -46 -119.5t-122 -49.5q-69 0 -104.5 38.5t-35.5 102.5z " />
<glyph unicode="&#x3c;" horiz-adv-x="915" d="M51 528v158l746 340l65 -178l-416 -180q-101 -42 -131 -52q62 -26 115 -55l354 -186l-112 -189z" />
<glyph unicode="=" horiz-adv-x="1071" d="M123 354l37 181h717l-35 -181h-719zM193 713l36 180h717l-35 -180h-718z" />
<glyph unicode="&#x3e;" horiz-adv-x="915" d="M51 362l418 181q90 38 131 51q-62 26 -115 55l-356 189l115 188l618 -344v-158l-743 -338z" />
<glyph unicode="?" horiz-adv-x="907" d="M102 121q0 72 46 122t122 50q69 0 105.5 -38t36.5 -105q0 -71 -47 -122t-123 -51q-68 0 -104 39.5t-36 104.5zM209 1282q74 32 122 50.5t119 35t134 16.5q161 0 246 -71t85 -199q0 -55 -14.5 -105.5t-34 -86t-54.5 -75.5t-60 -63t-68 -60t-63 -56q-157 -147 -220 -287 l-159 47q15 78 63.5 159t107 145.5t114.5 124t94 116.5t38 102q0 131 -139 131q-30 0 -64.5 -9t-55.5 -18t-63.5 -30t-60.5 -29z" />
<glyph unicode="@" horiz-adv-x="1738" d="M41 201q0 199 55.5 371t153.5 297t230 214.5t287 134t323 44.5q123 0 228 -33.5t186 -97.5t127 -167.5t46 -234.5q0 -100 -20.5 -204t-61 -200t-96 -171.5t-132.5 -120.5t-163 -45q-50 0 -84.5 21.5t-49.5 58t-20.5 68t-5.5 67.5q0 19 1.5 37.5t4 31t6.5 37t7 41.5 l-35 -80q-122 -282 -369 -282q-90 0 -151.5 46t-87 113.5t-25.5 149.5q0 178 64 321t192.5 229.5t302.5 86.5q109 0 220 -45l124 -8l-67 -392q-35 -198 -35 -249q0 -44 10 -67t41 -23q66 0 127.5 99.5t95 222.5t33.5 212q0 210 -119 314t-346 104q-129 0 -250.5 -37 t-225 -110.5t-181.5 -176t-122 -242t-44 -300.5q0 -99 21.5 -171.5t71.5 -128t137 -83t212 -27.5q70 0 157 19t138 38l52 19l38 -138q-24 -11 -65 -27t-150.5 -42.5t-197.5 -26.5q-96 0 -179 16t-159.5 54.5t-130.5 98t-86.5 152.5t-32.5 212zM637 299q0 -143 96 -143 q45 0 93.5 50t87 125.5t68 157t44.5 152.5l27 125q-40 18 -105 18q-81 0 -143.5 -45.5t-97.5 -119.5t-52.5 -155.5t-17.5 -164.5z" />
<glyph unicode="A" horiz-adv-x="1167" d="M-80 39l748 1331h186l262 -1370h-250l-59 369h-459l-194 -385zM432 539h350q-39 245 -71 544q-18 -34 -69 -133.5t-105 -204.5t-105 -206z" />
<glyph unicode="B" horiz-adv-x="1126" d="M31 0l266 1378l188 -16q94 20 199 20q94 0 166.5 -15.5t128.5 -49.5t85.5 -93t29.5 -141q0 -121 -69 -213t-185 -147q180 -76 180 -274q0 -138 -79.5 -241.5t-214.5 -156.5t-306 -53h-88.5t-92.5 0.5t-80 1t-60 0.5h-25h-43zM299 162h102q166 0 264.5 70.5t98.5 189.5 q0 98 -51.5 149.5t-180.5 51.5h-145zM422 797h82q176 0 256 65t80 172q0 185 -217 185q-69 0 -121 -9z" />
<glyph unicode="C" horiz-adv-x="1028" d="M82 426q0 150 28.5 290.5t87.5 264.5t143 216.5t203.5 146t260.5 53.5q130 0 195.5 -60t80.5 -153l-182 -82q-28 117 -133 117q-84 0 -156 -49t-119.5 -128t-81.5 -179.5t-49.5 -202t-15.5 -197.5q0 -311 258 -311q84 0 133 10t123 37l37 -156q-78 -35 -160 -52.5 t-203 -17.5q-450 0 -450 453z" />
<glyph unicode="D" horiz-adv-x="1325" d="M31 0l266 1378l182 -14q155 33 314 33q450 0 450 -453q0 -171 -25.5 -310t-86.5 -260t-156 -203t-239.5 -128.5t-332.5 -46.5q-46 0 -95 0.5t-87 1t-69 1t-49 1t-19 0.5h-53zM301 180h143q119 0 212.5 40.5t153.5 108.5t99 163t55.5 197.5t16.5 219.5q0 310 -258 310 q-134 0 -225 -29z" />
<glyph unicode="E" d="M31 0l266 1370h788l-34 -172h-551l-76 -393h444l-37 -170h-440l-90 -463h567v-172h-837z" />
<glyph unicode="F" horiz-adv-x="956" d="M31 0l266 1370h788l-34 -172h-551l-78 -412h446l-37 -170h-444l-119 -616h-237z" />
<glyph unicode="G" horiz-adv-x="1216" d="M74 -332l84 182q10 -4 62 -27t76.5 -32t69 -24.5t82.5 -22t74 -6.5q93 0 164 49.5t86 120.5l55 262q-61 -92 -159.5 -144.5t-214.5 -52.5q-178 0 -274.5 118.5t-96.5 334.5q0 151 28.5 291t90.5 264.5t151 216.5t218.5 145.5t285.5 53.5q129 0 192.5 -54t86.5 -147 l-181 -82q-9 23 -18.5 38.5t-27.5 32.5t-48 25.5t-72 8.5q-91 0 -167 -49.5t-126 -128t-85 -180t-50.5 -202t-15.5 -196.5q0 -141 52 -226t157 -85q92 0 183 86.5t116 214.5l43 219h231l-143 -748q-32 -164 -163.5 -271.5t-323.5 -107.5q-176 0 -422 123z" />
<glyph unicode="H" horiz-adv-x="1325" d="M10 0l266 1370h236l-111 -565h545l111 565h235l-266 -1370h-235l122 635h-542l-125 -635h-236z" />
<glyph unicode="I" horiz-adv-x="565" d="M31 0l266 1370h238l-267 -1370h-237z" />
<glyph unicode="J" horiz-adv-x="567" d="M-236 -301q129 61 189.5 133t85.5 195l262 1343h236l-256 -1319q-12 -64 -31 -117.5t-40.5 -94.5t-53.5 -78t-61.5 -64t-74.5 -56t-82.5 -49.5t-93.5 -48.5z" />
<glyph unicode="K" horiz-adv-x="1148" d="M31 0l266 1370h240l-267 -1370h-239zM436 750l6 14q118 43 236 125t201.5 187.5t83.5 195.5q0 28 -13 71l213 48q27 -53 27 -123q0 -95 -50.5 -193t-127 -173t-155 -130t-146.5 -82q38 -165 158 -402t251 -394l-196 -105q-100 129 -173.5 245t-131 242t-93 219t-90.5 255 z" />
<glyph unicode="L" horiz-adv-x="860" d="M41 0l266 1370h238l-236 -1198h490v-172h-758z" />
<glyph unicode="M" horiz-adv-x="1662" d="M20 29l330 1341h193l170 -846q37 -217 39 -231q120 222 125 231l497 846h191l-154 -1370h-242l78 522q15 100 74 391q-141 -272 -211 -385l-319 -528h-166l-117 522q-3 14 -74 389q-40 -301 -59 -383l-117 -534z" />
<glyph unicode="N" horiz-adv-x="1347" d="M31 29l254 1341h184l322 -696q20 -44 62 -143.5t58 -135.5q16 151 37 273l131 712l228 -37l-254 -1345h-183l-329 704q-36 74 -117 273q-15 -169 -35 -277l-131 -706z" />
<glyph unicode="O" horiz-adv-x="1368" d="M82 426q0 151 28.5 291t89.5 264t148 216.5t212.5 146t275.5 53.5q450 0 450 -453q0 -151 -28.5 -291t-89.5 -264t-148 -216.5t-212.5 -146t-275.5 -53.5q-450 0 -450 453zM344 463q0 -311 258 -311q84 0 156 49t119.5 128t81.5 179.5t49.5 202t15.5 198.5 q0 310 -258 310q-84 0 -156 -49t-119.5 -128t-81.5 -179.5t-49.5 -202t-15.5 -197.5z" />
<glyph unicode="P" horiz-adv-x="1116" d="M31 0l266 1378l190 -16q94 20 199 20q193 0 300.5 -69.5t107.5 -229.5q0 -166 -78 -289.5t-210 -186t-298 -62.5q-86 0 -135 4l-105 -549h-237zM408 725h51q191 0 286 80.5t95 228.5q0 185 -217 185q-69 0 -121 -9z" />
<glyph unicode="Q" horiz-adv-x="1363" d="M113 715q0 95 31.5 191.5t93.5 184.5t147 156.5t201 109t245 40.5q451 0 451 -453q0 -172 -46.5 -336.5t-128.5 -297t-189 -235t-234.5 -162t-257.5 -67.5q60 -176 252 -176q96 0 195 42t212 112l78 -180q-110 -73 -243.5 -122.5t-262.5 -49.5q-88 0 -162.5 21.5 t-138.5 67t-108 124.5t-62 186l70 135q48 -10 90 -10q101 0 201 48.5t184 135.5t149.5 200t102.5 251t37 278q0 310 -258 310q-82 0 -155.5 -46.5t-122.5 -119t-77 -159t-28 -167.5q0 -96 40 -134.5t134 -51.5l-18 -172q-23 -7 -76 -7q-144 0 -245 95.5t-101 257.5z" />
<glyph unicode="R" horiz-adv-x="1138" d="M31 0l266 1378l190 -16q94 20 199 20q193 0 300.5 -69.5t107.5 -229.5q0 -192 -107 -304.5t-291 -151.5q46 -159 168 -370.5t252 -365.5l-192 -102q-181 230 -268 398.5t-173 422.5q-63 0 -98 2l-117 -612h-237zM418 776h41q193 0 287 58.5t94 199.5q0 185 -217 185 q-69 0 -121 -9z" />
<glyph unicode="S" horiz-adv-x="1024" d="M-31 90l103 180q61 -36 99.5 -56.5t99.5 -41t114 -20.5q118 0 187 54t69 161q0 67 -30.5 113t-98.5 95l-154 115q-66 48 -104.5 89.5t-62 102t-23.5 138.5q0 176 129.5 276.5t331.5 100.5q70 0 125.5 -15.5t90 -38t59.5 -57t37.5 -65t21.5 -68.5l-172 -80q-3 6 -11.5 27 t-14.5 33t-19 30.5t-27.5 29t-38 18.5t-51.5 8q-82 0 -139.5 -49t-57.5 -121q0 -47 18 -84.5t41.5 -59t67.5 -53.5l164 -121q180 -136 180 -336q0 -101 -43.5 -183.5t-116 -134t-162.5 -79t-188 -27.5q-72 0 -135.5 10.5t-122.5 33t-86.5 35.5t-79.5 40z" />
<glyph unicode="T" horiz-adv-x="931" d="M113 1198v172h960l-37 -172h-346l-231 -1198h-238l234 1198h-342z" />
<glyph unicode="U" horiz-adv-x="1335" d="M92 362q0 63 17 150l165 858h238l-164 -840q-12 -68 -12 -120q0 -124 62 -191t173 -67q129 0 213.5 102t118.5 276l164 840h238l-166 -858q-17 -89 -48.5 -165t-83.5 -144t-120.5 -115.5t-164 -75.5t-210.5 -28q-218 0 -319 102.5t-101 275.5z" />
<glyph unicode="V" horiz-adv-x="1167" d="M72 1370h252l122 -756q31 -198 41 -284q43 89 146 284l401 772l236 -55l-748 -1331h-188z" />
<glyph unicode="W" horiz-adv-x="1718" d="M92 1370h252l51 -758q6 -83 6 -256q41 121 107 256l354 758h209l62 -756q8 -120 8 -249q89 216 104 249l361 772l235 -55l-692 -1331h-188l-72 750q-9 98 -12 243q-52 -147 -95 -235l-370 -758h-189z" />
<glyph unicode="X" horiz-adv-x="1165" d="M-82 39l545 713l-270 618h253l146 -334q6 -15 24.5 -62t30.5 -77q51 81 94 137l263 357l210 -74l-460 -604l290 -713h-256l-163 410q-40 100 -58 155q-62 -96 -108 -155l-312 -426z" />
<glyph unicode="Y" horiz-adv-x="940" d="M82 1370h242l135 -530q55 131 139 247t161 188t159 128l143 -115q-186 -178 -257 -259q-182 -206 -258 -432q-75 -221 -75 -519v-78h-235v82q0 262 90 481z" />
<glyph unicode="Z" horiz-adv-x="1058" d="M-20 0v127l757 1071q-3 0 -31 -1t-36 -1h-463l33 174h829v-129l-762 -1071q16 0 50.5 1t54.5 1h481v-172h-913z" />
<glyph unicode="[" horiz-adv-x="768" d="M61 -381l355 1856h454l-34 -181h-238l-289 -1495h242l-33 -180h-457z" />
<glyph unicode="\" horiz-adv-x="827" d="M205 1493h215l305 -1751h-217z" />
<glyph unicode="]" horiz-adv-x="808" d="M-123 -381l35 180h238l284 1495h-237l32 181h457l-354 -1856h-455z" />
<glyph unicode="^" horiz-adv-x="1067" d="M92 672l479 700h166l217 -741l-219 -27l-96 397q-11 35 -31 154q-29 -85 -76 -156l-264 -419z" />
<glyph unicode="_" horiz-adv-x="991" d="M-29 -332l29 168h991l-30 -168h-990z" />
<glyph unicode="`" horiz-adv-x="980" d="M270 1452q6 9 18 24t53 48.5t87 52.5q25 -57 63.5 -117.5t76 -107t71 -84.5t53.5 -58l21 -20l-99 -92q-10 6 -28 18t-67 49.5t-91 76.5t-87.5 96.5t-70.5 113.5z" />
<glyph unicode="a" horiz-adv-x="1081" d="M61 322q0 196 66 352.5t198.5 251t311.5 94.5q130 0 244 -49l129 -8l-92 -478q-21 -114 -21 -190q0 -61 14 -113.5t26.5 -74.5t33.5 -54l-185 -73q-69 79 -69 202q0 38 14 164l-35 -82q-67 -153 -156.5 -216.5t-205.5 -63.5q-57 0 -103 19t-77.5 51t-52.5 75.5t-30.5 92 t-9.5 100.5zM305 313q0 -87 25.5 -124t79.5 -37q65 0 134 96.5t115 218t70 233.5l29 142q-41 20 -117 20q-71 0 -129 -34.5t-95.5 -90.5t-63.5 -129t-37 -147t-11 -148z" />
<glyph unicode="b" horiz-adv-x="1052" d="M51 84l266 1360l232 41l-64 -342q-20 -108 -92 -332q116 209 326 209q70 0 124 -28.5t85.5 -77t47 -107.5t15.5 -125q0 -146 -38.5 -272.5t-110 -221.5t-181.5 -149.5t-245 -54.5q-169 0 -339 86zM295 160q56 -19 117 -19q70 0 128 34.5t96 90.5t64 129t37 147t11 148 q0 87 -25.5 124.5t-79.5 37.5q-62 0 -128 -84t-117.5 -215t-80.5 -279z" />
<glyph unicode="c" horiz-adv-x="833" d="M61 319q0 145 38.5 273t109.5 225.5t180.5 154t243.5 56.5q188 0 239 -197l-170 -73q-3 6 -9.5 21.5t-9.5 22t-10 18.5t-14 17.5t-17.5 12.5t-24.5 9.5t-31 2.5q-85 0 -151.5 -91.5t-98 -214.5t-31.5 -243q0 -91 37.5 -130.5t108.5 -39.5q32 0 90 14t102 28t41 14 l49 -148q-18 -8 -49.5 -20.5t-118.5 -33t-162 -20.5q-93 0 -161.5 28.5t-106.5 78t-56 108t-18 127.5z" />
<glyph unicode="d" horiz-adv-x="1056" d="M61 322q0 196 66 352.5t198.5 251t311.5 94.5q73 0 156 -19l86 443l231 41l-192 -998q-21 -114 -21 -192q0 -61 14 -113.5t26.5 -74.5t33.5 -54l-185 -73q-69 79 -69 202q0 38 14 164l-35 -82q-67 -153 -156.5 -216.5t-205.5 -63.5q-57 0 -103 19t-77.5 51t-52.5 75.5 t-30.5 92t-9.5 100.5zM305 313q0 -87 25.5 -124t79.5 -37q65 0 134 96.5t115 218t70 233.5l29 142q-41 20 -117 20q-71 0 -129 -34.5t-95.5 -90.5t-63.5 -129t-37 -147t-11 -148z" />
<glyph unicode="e" horiz-adv-x="937" d="M61 319q0 146 38.5 274t109.5 225.5t180.5 153.5t243.5 56q295 0 295 -221q0 -177 -174.5 -292.5t-450.5 -129.5q-2 -25 -2 -72q0 -170 150 -170q47 0 125 21t132 42l54 21l47 -147q-8 -4 -23.5 -11t-62 -25t-92.5 -31.5t-109 -24.5t-119 -11q-93 0 -161.5 28.5 t-106.5 78t-56 108t-18 127.5zM328 532q170 10 269 83.5t99 154.5q0 100 -110 100q-89 0 -155.5 -96.5t-102.5 -241.5z" />
<glyph unicode="f" horiz-adv-x="688" d="M-205 -301q96 44 151.5 83t95 99t56.5 146l158 811h-178v166h227q-45 66 -45 176q0 96 52.5 165t136.5 101.5t188 32.5q107 0 163 -51t83 -146l-170 -74q-13 48 -35.5 76.5t-67.5 28.5q-64 0 -99.5 -39t-35.5 -113q0 -75 23 -157h239l-26 -166h-232l-153 -787 q-12 -63 -32 -116.5t-42 -94.5t-56.5 -78.5t-64.5 -64t-78 -56.5t-83.5 -49t-94.5 -49z" />
<glyph unicode="g" horiz-adv-x="1081" d="M61 322q0 196 66 352.5t198.5 251t311.5 94.5q123 0 252 -49l119 -8q-36 -165 -74.5 -372t-38.5 -292q0 -70 16.5 -181.5t16.5 -172.5q0 -215 -111.5 -307.5t-322.5 -92.5q-163 0 -420 123l80 172q11 -4 53.5 -22t62 -26t59.5 -22.5t66.5 -21t61.5 -12.5t65 -6 q93 0 148 60.5t55 150.5q0 15 -4 89t-4 154q0 19 2.5 45t7 62.5t6.5 58.5l-39 -86q-67 -153 -156 -216.5t-204 -63.5q-57 0 -103 19t-77.5 51t-52.5 75.5t-30.5 92t-9.5 100.5zM305 313q0 -87 25 -124t78 -37q66 0 137.5 99.5t125 248t81.5 307.5l6 35q-59 20 -117 20 q-71 0 -129 -34.5t-95.5 -90.5t-63.5 -129t-37 -147t-11 -148z" />
<glyph unicode="h" horiz-adv-x="1107" d="M51 0l283 1444l231 41l-63 -342q-33 -177 -117 -404q59 139 157.5 210t223.5 71q131 0 195.5 -66t64.5 -184q0 -72 -21 -157t-45.5 -149.5t-45.5 -139t-21 -127.5q0 -125 16 -197h-227q-8 45 -8 123q0 90 30 201.5t59.5 216.5t29.5 178q0 117 -111 117q-70 0 -142.5 -82 t-123 -197t-72.5 -229l-63 -328h-230z" />
<glyph unicode="i" horiz-adv-x="559" d="M72 162q0 29 6 59l155 783h226l-148 -762q-4 -24 -4 -33q0 -51 35 -51q21 0 46.5 3.5t40 7.5t17.5 5v-147q-75 -37 -184 -37q-90 0 -140 46.5t-50 125.5zM260 1321q0 65 42 110.5t110 45.5q63 0 95 -35.5t32 -98.5q0 -62 -42.5 -106.5t-109.5 -44.5q-63 0 -95 35.5 t-32 93.5z" />
<glyph unicode="j" horiz-adv-x="497" d="M-266 -301q96 44 151.5 83t95 99t56.5 146l192 977h224l-189 -953q-17 -87 -49 -156.5t-68 -116.5t-95.5 -92.5t-108 -73.5t-129.5 -69zM264 1321q0 66 41 111t109 45q63 0 95 -35.5t32 -98.5q0 -62 -42 -106.5t-110 -44.5q-63 0 -94 35t-31 94z" />
<glyph unicode="k" horiz-adv-x="1085" d="M51 0l283 1444l231 41l-63 -344q-7 -38 -22.5 -94.5t-38.5 -132t-33 -111.5q134 217 342 217q124 0 199 -60t75 -176q0 -50 -16 -96.5t-42 -80t-57 -62.5t-62.5 -48.5t-57.5 -33t-42 -19.5l-16 -6q50 -158 125 -282t197 -265l-183 -102q-279 258 -395 703l2 20 q19 4 49 14t77 31t85.5 46t67 63t28.5 79q0 56 -23.5 82.5t-78.5 26.5q-54 0 -104.5 -38t-87 -95t-67.5 -132t-50 -141t-31 -129l-61 -319h-230z" />
<glyph unicode="l" horiz-adv-x="569" d="M61 162q0 26 7 57l239 1225l232 41l-238 -1243q-4 -24 -4 -33q0 -51 55 -51q67 0 115 16v-147q-88 -37 -215 -37q-93 0 -142 46t-49 126z" />
<glyph unicode="m" horiz-adv-x="1662" d="M72 0l104 516q23 115 23 203q0 144 -52 231l187 74q53 -63 53 -174q0 -25 -3 -56.5t-8 -72t-7 -59.5l30 77q55 137 146 209t203 72q117 0 180.5 -62.5t68.5 -171.5q116 234 326 234q126 0 192 -66.5t66 -183.5q0 -72 -21 -157t-45.5 -149.5t-45.5 -139t-21 -127.5 q0 -116 18 -197h-229q-8 45 -8 123q0 90 30 202t59.5 217t29.5 177q0 117 -99 117q-58 0 -121.5 -70.5t-111 -177t-68.5 -215.5l-71 -373h-230l103 516q24 120 24 203q0 117 -98 117q-58 0 -122 -70.5t-112 -177.5t-69 -217l-72 -371h-229z" />
<glyph unicode="n" horiz-adv-x="1128" d="M72 0l104 516q23 115 23 203q0 144 -52 231l187 74q53 -63 53 -174q0 -21 -1 -34.5t-2 -25t-5.5 -50t-9.5 -83.5l34 82q61 139 159.5 210t223.5 71q131 0 196 -66t65 -184q0 -91 -33.5 -200t-67 -208t-33.5 -165q0 -108 17 -197h-228q-8 45 -8 123q0 90 30 201.5 t59.5 216.5t29.5 178q0 117 -111 117q-70 0 -142 -82t-122.5 -197.5t-72.5 -230.5l-64 -326h-229z" />
<glyph unicode="o" d="M61 319q0 146 38.5 274t109.5 225.5t180.5 153.5t243.5 56q94 0 162.5 -28.5t106.5 -78t55.5 -108t17.5 -127.5q0 -148 -38 -276t-109 -225t-180.5 -152.5t-244.5 -55.5q-93 0 -161.5 28.5t-106.5 78t-56 108t-18 127.5zM305 305q0 -91 37.5 -130.5t108.5 -39.5 q64 0 119 56t89 142.5t53 183t19 183.5q0 91 -37 130.5t-108 39.5q-64 0 -119 -56t-89.5 -142t-53.5 -182.5t-19 -184.5z" />
<glyph unicode="p" horiz-adv-x="1095" d="M-10 -455l188 971q23 115 23 203q0 146 -51 231l186 74q53 -63 53 -174q0 -63 -16 -172l26 59q67 154 157 218.5t206 64.5q70 0 124 -28.5t85.5 -77t47 -107.5t15.5 -125q0 -146 -38.5 -272.5t-110 -221.5t-181.5 -149.5t-245 -54.5q-71 0 -156 18l-82 -416zM334 162 q62 -21 121 -21q70 0 128 34.5t96 90.5t64 129t37 147t11 148q0 87 -25.5 124.5t-79.5 37.5q-100 0 -187 -172.5t-155 -472.5z" />
<glyph unicode="q" horiz-adv-x="1060" d="M61 322q0 196 66 352.5t198.5 251t311.5 94.5q123 0 252 -49l121 -8l-13 -45l-268 -1332l-229 -41l61 316q18 102 86 309q-113 -186 -313 -186q-57 0 -103 19t-77.5 51t-52.5 75.5t-30.5 92t-9.5 100.5zM305 313q0 -87 25.5 -124t79.5 -37q88 0 181 158.5t132 367.5 l31 166q-58 18 -113 18q-71 0 -129 -34.5t-95.5 -90.5t-63.5 -129t-37 -147t-11 -148z" />
<glyph unicode="r" horiz-adv-x="774" d="M72 0l104 516q23 115 23 203q0 144 -52 231l187 74q53 -63 53 -174q0 -25 -3 -58t-8 -75t-7 -62q44 188 114.5 277.5t182.5 89.5q123 0 180 -84l-119 -190q-30 32 -59.5 48.5t-71.5 16.5q-53 0 -106.5 -91t-90.5 -220l-98 -502h-229z" />
<glyph unicode="s" horiz-adv-x="849" d="M-10 76l90 162q17 -11 44.5 -26.5t95 -42t112.5 -26.5q73 0 113 33.5t40 83.5q0 62 -32.5 99t-92.5 69l-51 27q-28 15 -43.5 24.5t-42.5 32.5t-41.5 48t-26.5 67t-12 92q0 136 100 222.5t283 86.5q120 0 187.5 -54.5t83.5 -139.5l-170 -68q-2 4 -8 21t-9 22.5t-9.5 19 t-14 18.5t-18.5 12.5t-25.5 10t-32.5 2.5q-64 0 -96.5 -35.5t-32.5 -82.5q0 -86 111 -148l59 -33q40 -22 65.5 -41t52 -50.5t39.5 -77t13 -105.5q0 -139 -104 -230.5t-291 -91.5q-49 0 -101.5 10t-92.5 24.5t-73.5 29.5t-50.5 25z" />
<glyph unicode="t" horiz-adv-x="743" d="M102 838v166h205l90 256l195 43l-60 -299h230l-29 -166h-233l-115 -605q-4 -24 -4 -30q0 -28 17 -39.5t61 -11.5q34 0 77.5 8.5t69.5 17.5l27 8v-153q-13 -5 -36 -13.5t-91.5 -22t-132.5 -13.5q-120 0 -174 43t-54 129q0 22 7 57l124 625h-174z" />
<glyph unicode="u" horiz-adv-x="1118" d="M72 233q0 72 21 156t46.5 148.5t46.5 144t21 143.5q0 101 -12 144l194 49q39 -79 39 -207q0 -63 -19 -137t-42.5 -130.5t-42.5 -128t-19 -130.5q0 -117 111 -117q70 0 142.5 81.5t123 197t72.5 231.5l63 326h230l-109 -517q-23 -115 -23 -190q0 -61 14 -113.5t27 -75.5 t35 -55l-186 -73q-70 80 -70 202q0 33 15 164l-35 -82q-61 -139 -159.5 -209.5t-223.5 -70.5q-131 0 -195.5 65.5t-64.5 183.5z" />
<glyph unicode="v" horiz-adv-x="1075" d="M92 217q0 53 19 170l118 617h224l-117 -611q-14 -88 -14 -123q0 -58 29 -92.5t83 -34.5q90 0 177 112t138.5 270.5t51.5 299.5q0 97 -13 144l197 49q39 -79 39 -207q0 -200 -80 -395t-213 -307q-79 -67 -164 -96t-211 -29q-264 0 -264 233z" />
<glyph unicode="w" horiz-adv-x="1566" d="M92 217q0 53 19 170l118 617h224l-117 -611q-14 -88 -14 -123q0 -58 29 -92.5t83 -34.5q67 0 127 66.5t98.5 169t61 221t22.5 225.5q0 101 -12 144l197 49q39 -79 39 -207q0 -145 -40 -286t-114 -255v-7q0 -53 28 -85q30 -34 83 -35q68 0 136.5 67t118.5 168t81.5 222 t31.5 225q0 101 -12 144l197 49q36 -79 36 -207q0 -201 -79 -397t-211 -308q-78 -66 -160 -94t-197 -28q-151 0 -213 116q-69 -55 -135.5 -85.5t-155.5 -30.5q-270 0 -270 233z" />
<glyph unicode="x" horiz-adv-x="958" d="M-113 0l475 535l-229 469h242l98 -199q31 -62 62 -139q60 57 124 141q50 69 50 102q0 23 -9 60l195 49l1 -1q1 -1 2 -3.5t3 -6.5t3.5 -9t3.5 -11.5t4 -14t3 -16t2 -18.5t1 -20q0 -72 -50 -148q-62 -99 -243 -264l225 -506h-244l-123 264l-37 88q-61 -87 -86 -114 l-210 -238h-263z" />
<glyph unicode="y" horiz-adv-x="1118" d="M72 233q0 72 21 156t45.5 148.5t45.5 144t21 143.5q0 96 -10 144l194 49q39 -79 39 -207q0 -63 -19 -137t-42.5 -130.5t-42.5 -128t-19 -130.5q0 -117 111 -117q69 0 141.5 81.5t123.5 197t73 231.5l63 326h230l-60 -266q-74 -347 -74 -439q0 -70 16.5 -181.5 t16.5 -172.5q0 -215 -111.5 -307.5t-322.5 -92.5q-163 0 -420 123l80 172q9 -4 53 -22.5t62.5 -26t59.5 -22t67.5 -21t61.5 -12.5t65 -6q93 0 147.5 60t54.5 151q0 15 -4 89t-4 154q0 29 8 94t9 72l-39 -86q-59 -139 -157.5 -209.5t-223.5 -70.5q-131 0 -195.5 65.5 t-64.5 183.5z" />
<glyph unicode="z" horiz-adv-x="817" d="M-41 0v143l571 697q-117 -6 -247 -6h-146v170h660v-140l-559 -698q50 4 65 4q45 0 129 -8t121 -8q97 0 184 53l51 -172q-103 -64 -233 -64q-83 0 -239 14.5t-240 14.5h-117z" />
<glyph unicode="{" horiz-adv-x="757" d="M51 -193q0 9 17 80l92 351q12 40 12 69q0 134 -111 152v159q79 17 138.5 71t70.5 142l52 416q14 107 101 171.5t222 64.5q52 0 139 -17l-34 -184q-63 23 -99 23q-50 0 -77 -29t-31 -62l-41 -354q-12 -103 -64 -182.5t-172 -140.5q67 -33 100 -74t33 -98q0 -50 -22 -140 l-88 -342q-4 -20 -4 -26q0 -35 22.5 -55.5t57.5 -20.5q37 0 102 20l-37 -182q-73 -12 -133 -12q-114 0 -180 48t-66 152z" />
<glyph unicode="|" horiz-adv-x="673" d="M41 -258l342 1751h209l-342 -1751h-209z" />
<glyph unicode="}" horiz-adv-x="753" d="M-143 -377l34 184q61 -22 99 -22q50 0 77 28t31 62l41 354q12 103 64 183t172 141q-67 33 -100 74t-33 98q0 49 22 139l88 342q4 20 4 27q0 35 -22.5 55.5t-57.5 20.5q-34 0 -102 -21l37 182q80 13 133 13q114 0 180 -48.5t66 -152.5q0 -9 -17 -80l-92 -350 q-12 -40 -12 -70q0 -135 111 -153v-158q-79 -17 -138.5 -71t-70.5 -142l-52 -416q-14 -107 -101 -171t-222 -64q-57 0 -139 16z" />
<glyph unicode="~" horiz-adv-x="1030" d="M92 627q134 174 285 174q43 0 78.5 -12.5t60.5 -30.5t48.5 -36.5t53 -31t62.5 -12.5q38 0 67 11.5t47.5 26.5t61.5 56l82 -92q-136 -172 -285 -172q-43 0 -78.5 12.5t-60 31t-48 36.5t-53 30.5t-63.5 12.5q-13 0 -24.5 -1t-22.5 -4t-18 -5t-18.5 -9t-16.5 -9.5 t-17.5 -13.5t-17 -14.5t-20 -18t-21.5 -19.5z" />
<glyph unicode="&#xa1;" horiz-adv-x="675" d="M33 -373l229 920h197l-172 -920h-254zM254 848q0 71 47 121.5t123 50.5q68 0 103.5 -39t35.5 -104q0 -72 -46 -122t-122 -50q-69 0 -105 38t-36 105z" />
<glyph unicode="&#xa2;" horiz-adv-x="1064" d="M113 336q0 270 129 456t333 214l29 180h156l-29 -178q185 -5 232 -179l-172 -75q-2 4 -8.5 21t-9.5 23.5t-10.5 19t-14 18.5t-17 12t-22.5 8l-109 -690q69 9 168 76l63 -148q-86 -79 -256 -96l-36 -238h-156l37 236q-83 5 -144.5 35t-96 78.5t-50.5 104.5t-16 122z M356 330q0 -137 90 -162l103 672q-67 -32 -112 -119t-63 -186t-18 -205z" />
<glyph unicode="&#xa3;" horiz-adv-x="1216" d="M82 133q10 5 24.5 16t36.5 32t42 55t30 73l53 207h-131l37 184h145l48 179q53 199 180.5 311.5t324.5 112.5q288 0 314 -244l-174 -78q-8 35 -16.5 56t-25.5 45t-47 35t-73 11q-79 0 -143.5 -55.5t-98.5 -177.5l-57 -195h362l-65 -184h-352l-23 -82q-51 -171 -154 -278 q75 14 146 14q44 0 127.5 -8t120.5 -8q97 0 184 53l51 -172q-103 -64 -233 -64q-88 0 -256.5 14.5t-261.5 14.5q-20 0 -70 -4z" />
<glyph unicode="&#xa4;" horiz-adv-x="1329" d="M20 121l205 166q-41 77 -41 180q0 242 166 401l-143 176l153 109l127 -188q119 55 240 55q129 0 215 -53l199 186l116 -131l-206 -166q43 -76 43 -180q0 -247 -168 -402l147 -176l-155 -108l-130 188q-110 -55 -237 -55q-128 0 -217 53l-197 -186zM358 508 q0 -232 222 -232q135 0 237.5 107t102.5 252q0 231 -222 231q-135 0 -237.5 -106.5t-102.5 -251.5z" />
<glyph unicode="&#xa5;" horiz-adv-x="1114" d="M92 211l35 180h233l25 127h-233l36 180h154l-207 584h236l161 -561l398 577l184 -90l-377 -510h162l-35 -180h-243l-25 -127h244l-35 -180h-244l-39 -211h-235l39 211h-234z" />
<glyph unicode="&#xa6;" horiz-adv-x="669" d="M41 -258l147 766h209l-149 -766h-207zM231 723l150 770h207l-148 -770h-209z" />
<glyph unicode="&#xa7;" horiz-adv-x="1040" d="M61 436q0 72 24.5 134t67 106.5t88.5 75.5t99 53q-43 72 -43 153q0 147 115 253t280 106q117 0 205 -78l-92 -147q-22 18 -35.5 27.5t-39.5 17.5t-58 8q-63 0 -100 -35t-37 -98q0 -38 21.5 -76t56.5 -71t77 -67.5t83.5 -73t76.5 -80t56.5 -95t21.5 -111.5 q0 -73 -25 -135.5t-68 -106.5t-90 -74.5t-100 -51.5q45 -78 45 -154q0 -147 -114 -252.5t-279 -105.5q-119 0 -205 77l92 148q22 -18 35.5 -27.5t39.5 -17.5t58 -8q64 0 101 35.5t37 97.5q0 38 -21.5 76t-56.5 71t-77 67.5t-84 73t-77 79.5t-56.5 94.5t-21.5 111.5zM299 502 q0 -39 25.5 -82t53 -70.5t85.5 -80t82 -76.5q145 53 145 180q0 38 -25.5 80.5t-53.5 70t-85.5 79t-83.5 77.5q-143 -50 -143 -178z" />
<glyph unicode="&#xa8;" horiz-adv-x="978" d="M170 1272q0 58 36.5 98.5t96.5 40.5q58 0 87.5 -32t29.5 -89q0 -56 -37.5 -95.5t-97.5 -39.5q-58 0 -86.5 31.5t-28.5 85.5zM557 1272q0 58 37 98.5t98 40.5q57 0 86 -32t29 -89q0 -56 -37.5 -95.5t-97.5 -39.5q-58 0 -86.5 31.5t-28.5 85.5z" />
<glyph unicode="&#xa9;" horiz-adv-x="1550" d="M72 535q0 185 63 346t173 276t267.5 181.5t339.5 66.5q259 0 411.5 -149.5t152.5 -397.5q0 -183 -63 -344t-174 -276.5t-269 -182.5t-340 -67q-257 0 -409 150t-152 397zM246 584q0 -206 110 -326.5t312 -120.5q116 0 229 49t202.5 135t145 214.5t55.5 275.5 q0 206 -108 324t-313 118q-91 0 -182 -30.5t-172 -90t-143.5 -139.5t-99 -186t-36.5 -223zM475 559q0 147 49 271.5t150 205t235 80.5q60 0 104 -31t58 -69l-115 -101q-16 28 -36.5 40t-57.5 12q-46 0 -84.5 -36.5t-62 -93t-36.5 -119.5t-13 -120q0 -75 27 -118.5t83 -43.5 q65 0 125 31l37 -125q-112 -49 -215 -49q-248 0 -248 266z" />
<glyph unicode="&#xaa;" horiz-adv-x="847" d="M123 879q0 208 107.5 345.5t293.5 137.5q86 0 168 -33l103 -4l-66 -342q-14 -74 -14 -121q0 -39 12 -76.5t21.5 -54t27.5 -41.5l-162 -63q-59 67 -59 155q0 11 2 58q-32 -99 -98 -153t-135 -54q-100 0 -150.5 71.5t-50.5 174.5zM324 874q0 -49 12.5 -69.5t38.5 -20.5 q46 0 90.5 61t72 136.5t40.5 146.5l14 80q-25 11 -64 11q-53 0 -94.5 -32.5t-64.5 -85.5t-34 -110.5t-11 -116.5z" />
<glyph unicode="&#xab;" horiz-adv-x="1169" d="M72 502q52 56 122.5 123t134.5 122.5t119 101.5t89 73.5t32 25.5l95 -119l-324 -329q211 -342 215 -348l-125 -97q-26 28 -68.5 74t-138.5 165t-151 208zM508 502q51 56 120.5 123t133 122.5t118.5 101.5t89 73.5t32 25.5l97 -119l-326 -329l217 -348l-125 -97 q-26 28 -68 74t-137.5 165t-150.5 208z" />
<glyph unicode="&#xac;" horiz-adv-x="1054" d="M102 631l35 178h813l-80 -436h-170l48 258h-646z" />
<glyph unicode="&#xad;" horiz-adv-x="778" d="M92 569l35 168h559l-33 -168h-561z" />
<glyph unicode="&#xae;" horiz-adv-x="1187" d="M154 823q0 114 40.5 219.5t112.5 186t179.5 128.5t232.5 48q175 0 276 -100.5t101 -268.5q0 -114 -40.5 -219.5t-112.5 -185.5t-180 -128t-233 -48q-175 0 -275.5 100t-100.5 268zM287 854q0 -124 74 -203.5t196 -79.5q108 0 202 61t149 161.5t55 212.5q0 124 -73 203 t-198 79q-108 0 -202 -61t-148.5 -161t-54.5 -212zM410 666l100 528l70 -10q8 1 37.5 3.5t41.5 2.5q69 0 112.5 -28.5t43.5 -86.5q0 -102 -127 -162q23 -86 103 -208l-82 -58q-62 100 -113 242q-12 -2 -39 -2l-41 -221h-106zM565 948q25 0 49 4q91 21 91 105 q0 30 -20.5 48.5t-53.5 18.5l-31 2z" />
<glyph unicode="&#xaf;" horiz-adv-x="980" d="M158 1227l26 170h639l-26 -170h-639z" />
<glyph unicode="&#xb0;" horiz-adv-x="509" d="M102 1178q0 118 80 205t203 87q84 0 134 -51.5t50 -132.5q0 -117 -79.5 -205t-200.5 -88q-85 0 -136 51t-51 134zM229 1198q0 -41 22 -64.5t62 -23.5q58 0 93.5 46t35.5 108q0 42 -21.5 66t-60.5 24q-58 0 -94.5 -46.5t-36.5 -109.5z" />
<glyph unicode="&#xb1;" horiz-adv-x="1148" d="M113 66l34 180h293l54 276h-293l35 178h290l62 314h186l-59 -314h301l-35 -178h-301l-51 -276h295l-33 -180h-778z" />
<glyph unicode="&#xb2;" horiz-adv-x="667" d="M61 645v150l203 174q99 84 132.5 122.5t33.5 79.5q0 54 -45 54q-17 0 -38 -6t-34.5 -12t-49.5 -23.5t-52 -24.5l-49 141q146 70 248 70q96 0 156.5 -44.5t60.5 -119.5q0 -28 -7.5 -55.5t-16 -48t-31.5 -49.5t-35.5 -44t-48.5 -47t-50 -44t-59 -50l-88 -73h252l-29 -150 h-453z" />
<glyph unicode="&#xb3;" horiz-adv-x="686" d="M61 707l62 122q42 -22 62 -32t49 -18.5t55 -8.5q51 0 86 34t35 95q0 68 -58 68q-29 0 -102 -13l-43 123q24 8 57 16t54.5 13.5t45.5 14t38 18t23 24.5t9 35q0 12 -9.5 20.5t-27.5 8.5q-9 0 -18 -1.5t-17 -3.5t-19.5 -6.5t-18.5 -7.5t-21.5 -10.5t-21.5 -11t-24.5 -13.5 t-25.5 -14l-59 139q75 38 130.5 55t119.5 17q96 0 148.5 -44.5t52.5 -108.5q0 -51 -37.5 -96t-108.5 -64q58 -20 88.5 -59.5t30.5 -88.5q0 -114 -89.5 -192t-234.5 -78q-105 0 -211 68z" />
<glyph unicode="&#xb4;" horiz-adv-x="980" d="M248 1202q22 29 58.5 75t131.5 147t168 153q11 -8 29 -21.5t52.5 -50.5t45.5 -69q-69 -45 -167 -130t-161 -148l-63 -62z" />
<glyph unicode="&#xb5;" horiz-adv-x="1148" d="M-31 -455l281 1459h225l-127 -656q-6 -30 -6 -53q0 -64 31 -95.5t73 -31.5q69 0 141.5 81.5t123.5 197t73 231.5l64 326h227l-108 -517q-23 -115 -23 -190q0 -61 14 -113.5t27 -75.5t35 -55l-184 -73q-72 83 -72 202q0 1 14 164l-35 -80q-30 -68 -55.5 -113t-62 -87 t-83.5 -62t-106 -20q-52 0 -96.5 27t-63.5 71v-4q0 -3 -0.5 -11t-1 -18t-1 -24t-2 -28.5t-3 -31.5t-3.5 -34t-5 -35t-6 -35l-53 -275z" />
<glyph unicode="&#xb6;" horiz-adv-x="1130" d="M123 842q0 235 147 376t396 152l-160 -848q-190 0 -286.5 84t-96.5 236zM297 -301q144 66 212 134.5t91 193.5l254 1343h236l-252 -1321q-12 -62 -32.5 -115.5t-43 -93.5t-59 -78t-66.5 -64t-80 -56.5t-85 -49.5t-95 -49z" />
<glyph unicode="&#xb7;" horiz-adv-x="493" d="M92 637q0 72 46 122t122 50q69 0 105 -38t36 -105q0 -71 -47 -121.5t-121 -50.5q-70 0 -105.5 38.5t-35.5 104.5z" />
<glyph unicode="&#xb8;" horiz-adv-x="983" d="M268 -391l60 112q72 -47 137 -47q42 0 71 14.5t29 41.5t-22.5 46t-49 29t-49 31.5t-22.5 52.5q0 38 51 117h131q-31 -31 -31 -74q0 -16 15.5 -30.5t38 -27.5t45 -28t38 -39.5t15.5 -54.5q0 -54 -22 -94.5t-60 -63t-82.5 -33t-95.5 -10.5q-111 0 -197 58z" />
<glyph unicode="&#xb9;" horiz-adv-x="536" d="M82 1227q78 21 135 48.5t123 88.5h135l-133 -717h-176l96 514q-71 -55 -121 -69z" />
<glyph unicode="&#xba;" horiz-adv-x="851" d="M123 877q0 138 45.5 248t137.5 176.5t216 66.5q130 0 189 -71t59 -177q0 -136 -45.5 -245.5t-137.5 -176.5t-216 -67q-68 0 -118 20.5t-77.5 56t-40 77.5t-12.5 92zM324 866q0 -51 19.5 -71.5t57.5 -20.5q50 0 90 59.5t59 140t19 156.5q0 95 -80 95q-50 0 -89 -60.5 t-57.5 -141t-18.5 -157.5z" />
<glyph unicode="&#xbb;" horiz-adv-x="1169" d="M74 174l321 328l-215 350l125 96q26 -27 69 -73.5t139 -165t151 -207.5q-52 -56 -122 -123t-133.5 -122.5t-118.5 -102t-89.5 -74t-32.5 -25.5zM506 174l323 328q-134 217 -213 350l123 96q26 -27 69 -73.5t139 -165t151 -207.5q-38 -41 -86 -88t-94.5 -89t-94 -83.5 t-87 -74.5t-70.5 -59t-48 -39.5t-16 -13.5z" />
<glyph unicode="&#xbc;" horiz-adv-x="1615" d="M166 1061q78 21 135 48.5t123 88.5h135l-133 -717h-176l96 514q-71 -55 -121 -69zM236 0l768 1202h204l-770 -1202h-202zM844 172v113l243 434h195l-233 -391h137l63 202l150 33l-45 -235h86l-33 -156h-82l-31 -172h-178l35 172h-307z" />
<glyph unicode="&#xbd;" horiz-adv-x="1613" d="M166 1061q78 21 135 48.5t123 88.5h135l-133 -717h-176l96 514q-71 -55 -121 -69zM238 0l768 1202h204l-770 -1202h-202zM893 0v150l203 174q99 84 132.5 122.5t33.5 79.5q0 54 -48 54q-14 0 -27.5 -3t-32 -10t-31 -13t-39 -19.5t-42.5 -20.5l-51 141q146 70 250 70 q95 0 155 -44.5t60 -119.5q0 -28 -7.5 -55.5t-16 -48t-31.5 -49.5t-35.5 -44t-48.5 -47t-50 -44t-59 -50l-88 -73h254l-28 -150h-453z" />
<glyph unicode="&#xbe;" horiz-adv-x="1734" d="M115 543l61 125q44 -23 62.5 -32.5t48 -18.5t55.5 -9q50 0 84.5 33.5t34.5 93.5q0 68 -55 68q-47 0 -103 -10l-43 120q26 8 67 18.5t64 17.5t47.5 18t35.5 27.5t11 39.5q0 12 -9 20.5t-25 8.5q-9 0 -18 -1.5t-17 -3.5t-19.5 -6.5t-18.5 -7.5t-21.5 -10.5t-21.5 -11 t-24.5 -13.5t-25.5 -14l-60 140q75 37 129.5 54t120.5 17q97 0 149 -44t52 -109q0 -51 -37.5 -96t-108.5 -64q58 -20 88.5 -59.5t30.5 -88.5q0 -114 -89 -192t-234 -78q-105 0 -211 68zM352 0l768 1202h207l-770 -1202h-205zM963 172v113l243 434h193l-234 -391h140l63 202 l148 33l-46 -235h86l-32 -156h-82l-31 -172h-176l33 172h-305z" />
<glyph unicode="&#xbf;" horiz-adv-x="909" d="M-8 -119q0 55 14.5 105.5t34 86.5t54.5 76t60.5 63t68.5 60.5t63 55.5q156 146 219 286l160 -47q-15 -78 -63.5 -159t-106.5 -145.5t-114.5 -124t-94 -116.5t-37.5 -102q0 -131 137 -131q30 0 65 9.5t55 17.5t65.5 30.5t58.5 28.5l67 -162q-75 -33 -122 -51t-118 -34.5 t-134 -16.5q-160 0 -246 71.5t-86 198.5zM498 846q0 72 46 122t122 50q68 0 103.5 -39t35.5 -105q0 -71 -46 -121.5t-120 -50.5q-70 0 -105.5 38t-35.5 106z" />
<glyph unicode="&#xc0;" horiz-adv-x="1167" d="M-82 39l748 1331h188l262 -1370h-252l-57 369h-461l-192 -385zM352 1726q4 10 12.5 27.5t40.5 60t72 72.5q38 -50 89.5 -101t98 -88t87.5 -67t66 -46l24 -15l-74 -111q-12 4 -32 11.5t-76.5 33t-106.5 54t-107.5 74.5t-93.5 95zM430 539h350q-38 248 -69 544 q-12 -24 -112.5 -217t-168.5 -327z" />
<glyph unicode="&#xc1;" horiz-adv-x="1167" d="M-82 39l748 1331h188l262 -1370h-252l-57 369h-461l-192 -385zM430 539h350q-38 248 -69 544q-12 -24 -112.5 -217t-168.5 -327zM676 1579q26 25 70.5 64t155.5 122t192 121q10 -10 25 -26t43 -59t34 -77q-76 -32 -188 -98t-186 -116l-74 -50z" />
<glyph unicode="&#xc2;" horiz-adv-x="1167" d="M-82 39l748 1331h188l262 -1370h-252l-57 369h-461l-192 -385zM403 1563q29 25 76.5 64t165 122t199.5 121q63 -74 143.5 -153.5t130.5 -122.5l49 -42l-73 -112q-18 8 -48 23t-108 65t-137 104q-69 -37 -150.5 -84t-128.5 -76l-47 -28zM430 539h350q-38 248 -69 544 q-12 -24 -112.5 -217t-168.5 -327z" />
<glyph unicode="&#xc3;" horiz-adv-x="1167" d="M-82 39l748 1331h188l262 -1370h-252l-57 369h-461l-192 -385zM430 539h350q-38 248 -69 544q-12 -24 -112.5 -217t-168.5 -327zM467 1548l33 164q9 5 25 13.5t61.5 22t87.5 13.5q51 0 156 -21.5t155 -21.5q43 0 86.5 8t65.5 16l22 7l-33 -164q-9 -5 -25 -13.5t-62 -22 t-89 -13.5q-50 0 -155 21.5t-156 21.5q-42 0 -85 -7.5t-65 -15.5z" />
<glyph unicode="&#xc4;" horiz-adv-x="1167" d="M-82 39l748 1331h188l262 -1370h-252l-57 369h-461l-192 -385zM430 539h350q-38 248 -69 544q-12 -24 -112.5 -217t-168.5 -327zM494 1622q0 58 36 98.5t97 40.5q114 0 114 -121q0 -56 -37 -95.5t-98 -39.5q-57 0 -84.5 31.5t-27.5 85.5zM881 1622q0 58 36 98.5t97 40.5 q114 0 114 -121q0 -56 -37 -95.5t-98 -39.5q-57 0 -84.5 31.5t-27.5 85.5z" />
<glyph unicode="&#xc5;" horiz-adv-x="1167" d="M-82 39l711 1264q-51 45 -51 122q0 102 68.5 178t172.5 76q73 0 116.5 -44t43.5 -115q0 -65 -30.5 -123t-82.5 -92l250 -1305h-252l-57 369h-461l-192 -385zM430 539h350q-38 248 -69 544q-12 -24 -112.5 -217t-168.5 -327zM688 1444q0 -33 19 -53.5t51 -20.5 q47 0 78.5 38t31.5 93q0 33 -19 53.5t-52 20.5q-49 0 -79 -39.5t-30 -91.5z" />
<glyph unicode="&#xc6;" horiz-adv-x="1654" d="M-92 41l911 1329h885l-35 -172h-510l-76 -393h404l-37 -170h-399l-90 -463h526v-172h-795l74 379h-358l-258 -406zM520 551h279l125 647h-9q0 -1 -10 -18.5t-27 -46t-40.5 -68.5t-55 -93t-67 -111t-81 -130.5t-91.5 -144.5z" />
<glyph unicode="&#xc7;" horiz-adv-x="1028" d="M82 426q0 150 28.5 290.5t87.5 264.5t143 216.5t203.5 146t260.5 53.5q130 0 195.5 -60t80.5 -153l-182 -82q-28 117 -133 117q-84 0 -156 -49t-119.5 -128t-81.5 -179.5t-49.5 -202t-15.5 -197.5q0 -311 258 -311q84 0 133 10t123 37l37 -156q-139 -61 -295 -68 q-10 -20 -10 -43q0 -16 15.5 -30.5t38 -27.5t44.5 -28t37.5 -39.5t15.5 -54.5q0 -54 -22 -94.5t-60 -63t-82.5 -33t-95.5 -10.5q-108 0 -194 58l59 112q67 -47 137 -47q42 0 70.5 14t28.5 42q0 27 -22 46t-49 29t-49 31.5t-22 52.5q0 28 33 86q-391 28 -391 451z" />
<glyph unicode="&#xc8;" d="M31 0l266 1370h788l-34 -172h-551l-76 -393h444l-37 -170h-440l-90 -463h567v-172h-837zM264 1726q4 10 12.5 27.5t40.5 60t72 72.5q38 -50 89.5 -101t98 -88t87.5 -67t66 -46l24 -15l-74 -111q-12 4 -32 11.5t-76 33t-106 54t-107.5 74.5t-94.5 95z" />
<glyph unicode="&#xc9;" d="M31 0l266 1370h788l-34 -172h-551l-76 -393h444l-37 -170h-440l-90 -463h567v-172h-837zM588 1579q27 25 71.5 64t156 122t192.5 121q10 -10 25 -26t42.5 -59t32.5 -77q-76 -32 -187.5 -98t-184.5 -116l-74 -50z" />
<glyph unicode="&#xca;" d="M31 0l266 1370h788l-34 -172h-551l-76 -393h444l-37 -170h-440l-90 -463h567v-172h-837zM315 1563q29 25 77 64t165.5 122t198.5 121q64 -74 145 -153.5t131 -122.5l49 -42l-75 -112q-18 8 -48 23t-107.5 65t-135.5 104q-69 -37 -150.5 -84t-128.5 -76l-47 -28z" />
<glyph unicode="&#xcb;" d="M31 0l266 1370h788l-34 -172h-551l-76 -393h444l-37 -170h-440l-90 -463h567v-172h-837zM406 1622q0 58 36.5 98.5t96.5 40.5q58 0 87 -32t29 -89q0 -56 -38 -95.5t-99 -39.5q-56 0 -84 31.5t-28 85.5zM793 1622q0 58 36.5 98.5t96.5 40.5q58 0 87 -32t29 -89 q0 -56 -38 -95.5t-99 -39.5q-56 0 -84 31.5t-28 85.5z" />
<glyph unicode="&#xcc;" horiz-adv-x="565" d="M2 1726q4 10 12.5 27.5t40.5 60t72 72.5q60 -79 151.5 -158.5t152.5 -119.5l61 -39l-74 -111q-12 4 -32 11.5t-76 33t-106 54t-107.5 74.5t-94.5 95zM31 0l266 1370h238l-267 -1370h-237z" />
<glyph unicode="&#xcd;" horiz-adv-x="565" d="M31 0l266 1370h238l-267 -1370h-237zM326 1579q27 25 71 64t155.5 122t192.5 121q10 -10 25 -26t43 -59t33 -77q-76 -32 -188 -98t-186 -116l-73 -50z" />
<glyph unicode="&#xce;" horiz-adv-x="565" d="M31 0l266 1370h238l-267 -1370h-237zM53 1563q29 25 77 64t165.5 122t198.5 121q64 -74 144.5 -153.5t129.5 -122.5l49 -42l-74 -112q-18 8 -48 23t-107 65t-135 104q-70 -37 -151.5 -84t-127.5 -76l-47 -28z" />
<glyph unicode="&#xcf;" horiz-adv-x="565" d="M31 0l266 1370h238l-267 -1370h-237zM143 1622q0 58 36.5 98.5t96.5 40.5q58 0 87.5 -32t29.5 -89q0 -56 -38 -95.5t-99 -39.5q-56 0 -84.5 32t-28.5 85zM530 1622q0 57 37 98t97 41q58 0 87 -32t29 -89q0 -56 -38 -95.5t-99 -39.5q-56 0 -84.5 32t-28.5 85z" />
<glyph unicode="&#xd0;" horiz-adv-x="1325" d="M12 623l35 178h137l113 577l182 -14q155 33 314 33q232 0 340 -115.5t108 -337.5q0 -171 -25.5 -310t-86.5 -260t-155.5 -203t-239 -128.5t-331.5 -46.5q-46 0 -95 0.5t-87 1t-69 1t-49 1t-19 0.5h-53l119 623h-138zM301 180h143q119 0 212.5 40.5t153.5 108.5t99 163 t55.5 197.5t16.5 219.5q0 310 -258 310q-134 0 -225 -29l-76 -389h356l-33 -178h-358z" />
<glyph unicode="&#xd1;" horiz-adv-x="1347" d="M31 29l254 1341h184l322 -696q20 -44 62 -143.5t58 -135.5q16 151 37 273l131 712l228 -37l-254 -1345h-183l-329 704q-36 74 -117 273q-15 -169 -35 -277l-131 -706zM502 1548l33 164q9 5 25 13.5t62 22t89 13.5q50 0 155 -21.5t156 -21.5q42 0 85 8t65 16l22 7 l-33 -164q-9 -5 -25 -13.5t-61.5 -22t-87.5 -13.5q-50 0 -155.5 21.5t-155.5 21.5q-42 0 -85.5 -7.5t-66.5 -15.5z" />
<glyph unicode="&#xd2;" horiz-adv-x="1368" d="M82 426q0 151 28.5 291t89.5 264t148 216.5t212.5 146t275.5 53.5q450 0 450 -453q0 -151 -28.5 -291t-89.5 -264t-148 -216.5t-212.5 -146t-275.5 -53.5q-450 0 -450 453zM344 463q0 -311 258 -311q84 0 156 49t119.5 128t81.5 179.5t49.5 202t15.5 198.5 q0 310 -258 310q-84 0 -156 -49t-119.5 -128t-81.5 -179.5t-49.5 -202t-15.5 -197.5zM406 1726q4 10 11.5 27.5t39.5 60t73 72.5q59 -79 150.5 -158.5t153.5 -119.5l61 -39l-76 -111q-12 4 -31.5 11.5t-75.5 33t-105.5 54t-107 74.5t-93.5 95z" />
<glyph unicode="&#xd3;" horiz-adv-x="1368" d="M82 426q0 151 28.5 291t89.5 264t148 216.5t212.5 146t275.5 53.5q450 0 450 -453q0 -151 -28.5 -291t-89.5 -264t-148 -216.5t-212.5 -146t-275.5 -53.5q-450 0 -450 453zM344 463q0 -311 258 -311q84 0 156 49t119.5 128t81.5 179.5t49.5 202t15.5 198.5 q0 310 -258 310q-84 0 -156 -49t-119.5 -128t-81.5 -179.5t-49.5 -202t-15.5 -197.5zM727 1579q27 25 71.5 64t156 122t192.5 121q10 -10 25 -26t43 -59t34 -77q-76 -32 -188 -98t-186 -116l-74 -50z" />
<glyph unicode="&#xd4;" horiz-adv-x="1368" d="M82 426q0 151 28.5 291t89.5 264t148 216.5t212.5 146t275.5 53.5q450 0 450 -453q0 -151 -28.5 -291t-89.5 -264t-148 -216.5t-212.5 -146t-275.5 -53.5q-450 0 -450 453zM344 463q0 -311 258 -311q84 0 156 49t119.5 128t81.5 179.5t49.5 202t15.5 198.5 q0 310 -258 310q-84 0 -156 -49t-119.5 -128t-81.5 -179.5t-49.5 -202t-15.5 -197.5zM455 1563q29 25 77 64t165.5 122t199.5 121q63 -74 144 -153.5t131 -122.5l49 -42l-76 -112q-18 8 -48 23t-107.5 65t-135.5 104q-69 -37 -150.5 -84t-128.5 -76l-47 -28z" />
<glyph unicode="&#xd5;" horiz-adv-x="1368" d="M82 426q0 151 28.5 291t89.5 264t148 216.5t212.5 146t275.5 53.5q450 0 450 -453q0 -151 -28.5 -291t-89.5 -264t-148 -216.5t-212.5 -146t-275.5 -53.5q-450 0 -450 453zM344 463q0 -311 258 -311q84 0 156 49t119.5 128t81.5 179.5t49.5 202t15.5 198.5 q0 310 -258 310q-84 0 -156 -49t-119.5 -128t-81.5 -179.5t-49.5 -202t-15.5 -197.5zM518 1548l33 164q9 5 25 13.5t62 22t89 13.5q50 0 155 -21.5t156 -21.5q42 0 85 8t65 16l22 7l-30 -164q-9 -5 -25.5 -13.5t-62.5 -22t-88 -13.5q-50 0 -155.5 21.5t-156.5 21.5 q-42 0 -85.5 -7.5t-66.5 -15.5z" />
<glyph unicode="&#xd6;" horiz-adv-x="1368" d="M82 426q0 151 28.5 291t89.5 264t148 216.5t212.5 146t275.5 53.5q450 0 450 -453q0 -151 -28.5 -291t-89.5 -264t-148 -216.5t-212.5 -146t-275.5 -53.5q-450 0 -450 453zM344 463q0 -311 258 -311q84 0 156 49t119.5 128t81.5 179.5t49.5 202t15.5 198.5 q0 310 -258 310q-84 0 -156 -49t-119.5 -128t-81.5 -179.5t-49.5 -202t-15.5 -197.5zM545 1622q0 58 36.5 98.5t96.5 40.5q58 0 87.5 -32t29.5 -89q0 -56 -38.5 -95.5t-99.5 -39.5q-56 0 -84 31.5t-28 85.5zM932 1622q0 58 37 98.5t98 40.5q57 0 86 -32t29 -89 q0 -56 -37.5 -95.5t-97.5 -39.5q-58 0 -86.5 31.5t-28.5 85.5z" />
<glyph unicode="&#xd7;" horiz-adv-x="1044" d="M82 338l321 276l-210 267l149 123l207 -265l309 269l105 -136l-308 -268l217 -276l-149 -121l-213 270l-322 -274z" />
<glyph unicode="&#xd8;" horiz-adv-x="1368" d="M82 426q0 151 28.5 291t89.5 264t148 216.5t212.5 146t275.5 53.5q62 0 143 -15l80 138l174 -95l-74 -127q127 -115 127 -354q0 -151 -28.5 -291t-89.5 -264t-148 -216.5t-212.5 -146t-275.5 -53.5q-62 0 -143 15l-80 -138l-174 95l74 127q-127 110 -127 354zM344 301 l537 913q-49 9 -115 9q-84 0 -156 -49.5t-119.5 -129t-81.5 -181t-49.5 -203.5t-15.5 -199v-160zM487 156q50 -9 115 -9q84 0 156 49.5t120 129.5t82 182t49.5 205t14.5 200l-2 156z" />
<glyph unicode="&#xd9;" horiz-adv-x="1335" d="M92 362q0 63 17 150l165 858h238l-164 -840q-12 -68 -12 -120q0 -124 62 -191t173 -67q129 0 213.5 102t118.5 276l164 840h238l-166 -858q-17 -89 -48.5 -165t-83.5 -144t-120.5 -115.5t-164 -75.5t-210.5 -28q-218 0 -319 102.5t-101 275.5zM387 1726q4 10 12 27.5 t40 60t73 72.5q59 -79 150.5 -158.5t153.5 -119.5l61 -39l-76 -111q-12 4 -32 11.5t-76 33t-105.5 54t-107 74.5t-93.5 95z" />
<glyph unicode="&#xda;" horiz-adv-x="1335" d="M92 362q0 63 17 150l165 858h238l-164 -840q-12 -68 -12 -120q0 -124 62 -191t173 -67q129 0 213.5 102t118.5 276l164 840h238l-166 -858q-17 -89 -48.5 -165t-83.5 -144t-120.5 -115.5t-164 -75.5t-210.5 -28q-218 0 -319 102.5t-101 275.5zM709 1579q27 25 71 64 t155.5 122t192.5 121q10 -10 25 -26t43.5 -59t34.5 -77q-76 -32 -188.5 -98t-186.5 -116l-74 -50z" />
<glyph unicode="&#xdb;" horiz-adv-x="1335" d="M92 362q0 63 17 150l165 858h238l-164 -840q-12 -68 -12 -120q0 -124 62 -191t173 -67q129 0 213.5 102t118.5 276l164 840h238l-166 -858q-17 -89 -48.5 -165t-83.5 -144t-120.5 -115.5t-164 -75.5t-210.5 -28q-218 0 -319 102.5t-101 275.5zM436 1563q29 25 77 64 t166 122t200 121q63 -74 143.5 -153.5t129.5 -122.5l50 -42l-76 -112q-18 8 -48 23t-107 65t-135 104q-69 -37 -150.5 -84t-128.5 -76l-47 -28z" />
<glyph unicode="&#xdc;" horiz-adv-x="1335" d="M92 362q0 63 17 150l165 858h238l-164 -840q-12 -68 -12 -120q0 -124 62 -191t173 -67q129 0 213.5 102t118.5 276l164 840h238l-166 -858q-17 -89 -48.5 -165t-83.5 -144t-120.5 -115.5t-164 -75.5t-210.5 -28q-218 0 -319 102.5t-101 275.5zM526 1622q0 58 36.5 98.5 t96.5 40.5q58 0 87.5 -32t29.5 -89q0 -56 -38 -95.5t-99 -39.5q-56 0 -84.5 32t-28.5 85zM913 1622q0 58 37.5 98.5t98.5 40.5q57 0 85.5 -32t28.5 -89q0 -56 -37.5 -95.5t-97.5 -39.5q-58 0 -86.5 31.5t-28.5 85.5z" />
<glyph unicode="&#xdd;" horiz-adv-x="940" d="M82 1370h242l135 -530q55 131 139 247t161 188t159 128l143 -115q-186 -178 -257 -259q-182 -206 -258 -432q-75 -221 -75 -519v-78h-235v82q0 262 90 481zM492 1579q27 25 71 64t155.5 122t192.5 121q10 -10 25 -26t43 -59t33 -77q-76 -32 -188 -98t-186 -116l-73 -50z " />
<glyph unicode="&#xde;" horiz-adv-x="1093" d="M31 0l258 1370h235l-49 -252q105 10 168 10q205 0 306.5 -84.5t101.5 -236.5q0 -241 -169.5 -383.5t-443.5 -142.5h-119l-53 -281h-235zM350 461h137q138 0 222 87t84 218q0 84 -50 136t-163 52q-61 0 -138 -14z" />
<glyph unicode="&#xdf;" horiz-adv-x="1087" d="M-266 -301q144 66 212 134.5t91 193.5l182 954q20 105 59.5 190t104.5 156t165 110.5t228 39.5q152 0 226.5 -62t74.5 -164q0 -74 -32 -134.5t-77.5 -99.5t-90.5 -72.5t-77 -70.5t-32 -77q0 -39 23.5 -74.5t57 -66.5t66.5 -65t56.5 -84.5t23.5 -111.5q0 -176 -122 -292.5 t-312 -116.5q-126 0 -227 71l82 158q82 -53 180 -53q79 0 120.5 46t41.5 120q0 43 -22 79.5t-53 65.5t-62.5 61.5t-53.5 81t-22 109.5q0 55 16.5 102t43.5 81t59 64t64.5 55.5t59.5 50.5t43.5 55t16.5 63q0 58 -39.5 85.5t-101.5 27.5q-58 0 -103 -25t-74.5 -71t-48.5 -98 t-32 -120l-187 -946q-14 -72 -36 -131t-56 -106.5t-67.5 -82.5t-86 -70t-94.5 -58.5t-110 -57.5z" />
<glyph unicode="&#xe0;" horiz-adv-x="1081" d="M61 322q0 196 66 352.5t198.5 251t311.5 94.5q130 0 244 -49l129 -8l-92 -478q-21 -114 -21 -190q0 -61 14 -113.5t26.5 -74.5t33.5 -54l-185 -73q-69 79 -69 202q0 38 14 164l-35 -82q-67 -153 -156.5 -216.5t-205.5 -63.5q-57 0 -103 19t-77.5 51t-52.5 75.5t-30.5 92 t-9.5 100.5zM274 1452q6 9 18 24t53 48.5t87 52.5q25 -57 63.5 -117.5t76 -107t71 -84.5t53.5 -58l21 -20l-99 -92q-10 6 -28 18t-67 49.5t-91 76.5t-87.5 96.5t-70.5 113.5zM305 313q0 -87 25.5 -124t79.5 -37q65 0 134 96.5t115 218t70 233.5l29 142q-41 20 -117 20 q-71 0 -129 -34.5t-95.5 -90.5t-63.5 -129t-37 -147t-11 -148z" />
<glyph unicode="&#xe1;" horiz-adv-x="1081" d="M61 322q0 196 66 352.5t198.5 251t311.5 94.5q130 0 244 -49l129 -8l-92 -478q-21 -114 -21 -190q0 -61 14 -113.5t26.5 -74.5t33.5 -54l-185 -73q-69 79 -69 202q0 38 14 164l-35 -82q-67 -153 -156.5 -216.5t-205.5 -63.5q-57 0 -103 19t-77.5 51t-52.5 75.5t-30.5 92 t-9.5 100.5zM305 313q0 -87 25.5 -124t79.5 -37q65 0 134 96.5t115 218t70 233.5l29 142q-41 20 -117 20q-71 0 -129 -34.5t-95.5 -90.5t-63.5 -129t-37 -147t-11 -148zM555 1202q22 29 58 75t131 147t169 153q11 -8 28.5 -21.5t52 -50.5t46.5 -69q-69 -45 -167.5 -130 t-162.5 -148l-63 -62z" />
<glyph unicode="&#xe2;" horiz-adv-x="1081" d="M61 322q0 196 66 352.5t198.5 251t311.5 94.5q130 0 244 -49l129 -8l-92 -478q-21 -114 -21 -190q0 -61 14 -113.5t26.5 -74.5t33.5 -54l-185 -73q-69 79 -69 202q0 38 14 164l-35 -82q-67 -153 -156.5 -216.5t-205.5 -63.5q-57 0 -103 19t-77.5 51t-52.5 75.5t-30.5 92 t-9.5 100.5zM305 313q0 -87 25.5 -124t79.5 -37q65 0 134 96.5t115 218t70 233.5l29 142q-41 20 -117 20q-71 0 -129 -34.5t-95.5 -90.5t-63.5 -129t-37 -147t-11 -148zM311 1210q27 30 72 77.5t154 151t182 154.5q53 -80 124 -177t116 -154l45 -56l-99 -92q-15 9 -40 25.5 t-88.5 68t-110.5 103.5l-252 -199z" />
<glyph unicode="&#xe3;" horiz-adv-x="1081" d="M61 322q0 196 66 352.5t198.5 251t311.5 94.5q130 0 244 -49l129 -8l-92 -478q-21 -114 -21 -190q0 -61 14 -113.5t26.5 -74.5t33.5 -54l-185 -73q-69 79 -69 202q0 38 14 164l-35 -82q-67 -153 -156.5 -216.5t-205.5 -63.5q-57 0 -103 19t-77.5 51t-52.5 75.5t-30.5 92 t-9.5 100.5zM305 313q0 -87 25.5 -124t79.5 -37q65 0 134 96.5t115 218t70 233.5l29 142q-41 20 -117 20q-71 0 -129 -34.5t-95.5 -90.5t-63.5 -129t-37 -147t-11 -148zM352 1206l31 152q8 5 23 13t58 21t83 13q48 0 149 -20.5t148 -20.5q40 0 81 7t62 15l21 7l-31 -152 q-9 -5 -24 -13t-58 -21t-82 -13q-48 0 -149.5 20.5t-149.5 20.5q-40 0 -80.5 -7.5t-61.5 -14.5z" />
<glyph unicode="&#xe4;" horiz-adv-x="1081" d="M61 322q0 196 66 352.5t198.5 251t311.5 94.5q130 0 244 -49l129 -8l-92 -478q-21 -114 -21 -190q0 -61 14 -113.5t26.5 -74.5t33.5 -54l-185 -73q-69 79 -69 202q0 38 14 164l-35 -82q-67 -153 -156.5 -216.5t-205.5 -63.5q-57 0 -103 19t-77.5 51t-52.5 75.5t-30.5 92 t-9.5 100.5zM305 313q0 -87 25.5 -124t79.5 -37q65 0 134 96.5t115 218t70 233.5l29 142q-41 20 -117 20q-71 0 -129 -34.5t-95.5 -90.5t-63.5 -129t-37 -147t-11 -148zM358 1272q0 58 37.5 98.5t98.5 40.5q57 0 85.5 -32t28.5 -89q0 -56 -37 -95.5t-98 -39.5 q-58 0 -86.5 31.5t-28.5 85.5zM748 1272q0 58 36 98.5t97 40.5q114 0 114 -121q0 -56 -37 -95.5t-98 -39.5q-57 0 -84.5 31.5t-27.5 85.5z" />
<glyph unicode="&#xe5;" horiz-adv-x="1064" d="M131 322q0 196 66 352.5t198.5 251t311.5 94.5q129 0 243 -49l127 -8l-92 -478q-20 -109 -20 -190q0 -61 14.5 -114t26.5 -74.5t34 -53.5l-186 -73q-70 80 -70 202q0 11 17 164l-37 -82q-67 -153 -156.5 -216.5t-204.5 -63.5q-70 0 -124 28.5t-85.5 77t-47 107.5 t-15.5 125zM375 313q0 -87 25 -124t79 -37q49 0 101.5 56t94.5 141.5t74.5 177.5t49.5 173l28 142q-41 20 -116 20q-71 0 -129 -34.5t-95.5 -90.5t-63.5 -129t-37 -147t-11 -148zM590 1270q0 102 68.5 178t172.5 76q73 0 116.5 -44t43.5 -114q0 -102 -69 -178t-174 -76 q-71 0 -114.5 44t-43.5 114zM700 1288q0 -33 19 -53.5t51 -20.5q47 0 79 39t32 95q0 33 -19.5 53t-52.5 20q-49 0 -79 -39.5t-30 -93.5z" />
<glyph unicode="&#xe6;" horiz-adv-x="1542" d="M61 322q0 196 66 352.5t198.5 251t311.5 94.5q79 0 164.5 -23t138.5 -59q129 90 299 90q295 0 295 -221q0 -175 -171.5 -291t-442.5 -131q0 -1 -4 -15.5t-6.5 -29.5t-2.5 -27q0 -170 148 -170q48 0 126.5 21t132.5 42l54 21l47 -147q-8 -4 -23.5 -11t-61.5 -25t-92 -31.5 t-109 -24.5t-119 -11q-150 0 -230 67.5t-104 180.5q-64 -131 -149.5 -186t-192.5 -55q-57 0 -103 19t-77.5 51t-52.5 75.5t-30.5 92t-9.5 100.5zM305 313q0 -87 25.5 -124t79.5 -37q65 0 134 96.5t115 218t70 233.5l29 142q-41 20 -117 20q-71 0 -129 -34.5t-95.5 -90.5 t-63.5 -129t-37 -147t-11 -148zM936 532q168 10 267.5 84t99.5 154q0 100 -111 100q-88 0 -157 -99t-99 -239z" />
<glyph unicode="&#xe7;" horiz-adv-x="833" d="M61 319q0 145 38.5 273t109.5 225.5t180.5 154t243.5 56.5q188 0 239 -197l-170 -73q-3 6 -9.5 21.5t-9.5 22t-10 18.5t-14 17.5t-17.5 12.5t-24.5 9.5t-31 2.5q-85 0 -151.5 -91.5t-98 -214.5t-31.5 -243q0 -91 37.5 -130.5t108.5 -39.5q32 0 89.5 13.5t98.5 26.5t45 16 l49 -148q-10 -5 -36 -15.5t-85.5 -27t-117.5 -24.5q-15 -27 -15 -52q0 -16 15.5 -30.5t38 -27.5t45 -28t38 -39.5t15.5 -54.5q0 -54 -22 -94.5t-60 -63t-82.5 -33t-95.5 -10.5q-109 0 -195 58l60 112q67 -47 137 -47q42 0 70 14t28 42q0 27 -22 46t-48.5 29t-48.5 31.5 t-22 52.5q0 35 35 91q-83 5 -143.5 35t-94.5 78t-50 104t-16 122z" />
<glyph unicode="&#xe8;" horiz-adv-x="937" d="M61 319q0 146 38.5 274t109.5 225.5t180.5 153.5t243.5 56q295 0 295 -221q0 -177 -174.5 -292.5t-450.5 -129.5q-2 -25 -2 -72q0 -170 150 -170q47 0 125 21t132 42l54 21l47 -147q-8 -4 -23.5 -11t-62 -25t-92.5 -31.5t-109 -24.5t-119 -11q-93 0 -161.5 28.5 t-106.5 78t-56 108t-18 127.5zM276 1460q6 9 18 24t53 48.5t87 52.5q25 -57 63.5 -117.5t76 -107t71 -84.5t53.5 -58l21 -20l-98 -92q-10 6 -28 18t-67 49.5t-91.5 76.5t-88 96.5t-70.5 113.5zM328 532q170 10 269 83.5t99 154.5q0 100 -110 100q-89 0 -155.5 -96.5 t-102.5 -241.5z" />
<glyph unicode="&#xe9;" horiz-adv-x="937" d="M61 319q0 146 38.5 274t109.5 225.5t180.5 153.5t243.5 56q295 0 295 -221q0 -177 -174.5 -292.5t-450.5 -129.5q-2 -25 -2 -72q0 -170 150 -170q47 0 125 21t132 42l54 21l47 -147q-8 -4 -23.5 -11t-62 -25t-92.5 -31.5t-109 -24.5t-119 -11q-93 0 -161.5 28.5 t-106.5 78t-56 108t-18 127.5zM328 532q170 10 269 83.5t99 154.5q0 100 -110 100q-89 0 -155.5 -96.5t-102.5 -241.5zM545 1210q22 29 58 75t130.5 147t167.5 153q11 -8 29 -21.5t52.5 -50.5t45.5 -69q-68 -45 -166 -130t-162 -148l-63 -62z" />
<glyph unicode="&#xea;" horiz-adv-x="937" d="M61 319q0 146 38.5 274t109.5 225.5t180.5 153.5t243.5 56q295 0 295 -221q0 -177 -174.5 -292.5t-450.5 -129.5q-2 -25 -2 -72q0 -170 150 -170q47 0 125 21t132 42l54 21l47 -147q-8 -4 -23.5 -11t-62 -25t-92.5 -31.5t-109 -24.5t-119 -11q-93 0 -161.5 28.5 t-106.5 78t-56 108t-18 127.5zM311 1219q10 11 27.5 29.5t68.5 71t98.5 98.5t108.5 99t107 85q52 -80 122.5 -177t115.5 -154l45 -57l-99 -92q-15 9 -39.5 25.5t-87.5 68t-110 103.5l-252 -199zM328 532q170 10 269 83.5t99 154.5q0 100 -110 100q-89 0 -155.5 -96.5 t-102.5 -241.5z" />
<glyph unicode="&#xeb;" horiz-adv-x="937" d="M61 319q0 146 38.5 274t109.5 225.5t180.5 153.5t243.5 56q295 0 295 -221q0 -177 -174.5 -292.5t-450.5 -129.5q-2 -25 -2 -72q0 -170 150 -170q47 0 125 21t132 42l54 21l47 -147q-8 -4 -23.5 -11t-62 -25t-92.5 -31.5t-109 -24.5t-119 -11q-93 0 -161.5 28.5 t-106.5 78t-56 108t-18 127.5zM328 532q170 10 269 83.5t99 154.5q0 100 -110 100q-89 0 -155.5 -96.5t-102.5 -241.5zM360 1280q0 57 37 98t97 41q58 0 87 -32t29 -89q0 -56 -38 -95.5t-99 -39.5q-56 0 -84.5 32t-28.5 85zM748 1280q0 58 37 98.5t98 40.5q57 0 85.5 -32 t28.5 -89q0 -56 -37.5 -95.5t-97.5 -39.5q-58 0 -86 31.5t-28 85.5z" />
<glyph unicode="&#xec;" horiz-adv-x="561" d="M72 162q0 29 6 59l155 783h226l-148 -762q-4 -24 -4 -33q0 -51 35 -51q21 0 47 4t41 8l16 4v-147q-75 -37 -184 -37q-90 0 -140 46.5t-50 125.5zM96 1475q64 59 168 102q40 -90 87.5 -191.5t75.5 -157.5l28 -57l-107 -73q-18 20 -48 54.5t-97.5 134t-106.5 188.5z" />
<glyph unicode="&#xed;" horiz-adv-x="561" d="M72 162q0 29 6 59l155 783h226l-148 -762q-4 -24 -4 -33q0 -51 35 -51q21 0 47 4t41 8l16 4v-147q-75 -37 -184 -37q-90 0 -140 46.5t-50 125.5zM250 1171q5 11 14 30t39.5 72.5t62.5 102t81 106t98 95.5q11 -4 28.5 -12.5t55.5 -41.5t57 -73q-60 -46 -142 -134.5 t-134 -153.5l-52 -66z" />
<glyph unicode="&#xee;" horiz-adv-x="561" d="M72 162q0 29 6 59l155 783h226l-148 -762q-4 -24 -4 -33q0 -51 35 -51q21 0 47 4t41 8l16 4v-147q-75 -37 -184 -37q-90 0 -140 46.5t-50 125.5zM86 1161q23 28 61 74t136 153.5t172 172.5q48 -87 95.5 -189t71.5 -160l23 -59l-106 -72q-70 77 -142 179 q-44 -42 -98.5 -87t-86.5 -69l-32 -25z" />
<glyph unicode="&#xef;" horiz-adv-x="561" d="M72 162q0 29 6 59l155 783h226l-148 -762q-4 -24 -4 -33q0 -51 35 -51q21 0 47 4t41 8l16 4v-147q-75 -37 -184 -37q-90 0 -140 46.5t-50 125.5zM125 1311q0 50 33.5 87.5t89.5 37.5q110 0 110 -111q0 -52 -35.5 -89.5t-91.5 -37.5q-106 0 -106 113zM461 1311 q0 50 35 87.5t90 37.5q110 0 110 -111q0 -51 -35.5 -89t-89.5 -38q-55 0 -82.5 30t-27.5 83z" />
<glyph unicode="&#xf0;" horiz-adv-x="1083" d="M61 319q0 146 38.5 274t109.5 225.5t181 153.5t245 56q72 0 164 -53q-18 69 -64 164l-235 -68l-37 146l182 45l-102 96l137 129q47 -34 96 -82t78 -92l227 57l33 -145l-190 -41q69 -163 69 -404q0 -76 -9 -152.5t-30.5 -156.5t-53 -151t-79 -134.5t-107 -109.5 t-139.5 -72.5t-172 -26.5q-93 0 -161.5 28.5t-106.5 78t-56 108t-18 127.5zM305 305q0 -91 37.5 -130.5t108.5 -39.5q64 0 119 56t89 142.5t53 183t19 183.5q0 91 -37 130.5t-108 39.5q-64 0 -119 -56t-89.5 -142t-53.5 -182.5t-19 -184.5z" />
<glyph unicode="&#xf1;" horiz-adv-x="1128" d="M74 0l104 516q23 115 23 203q0 146 -51 231l186 74q53 -63 53 -174q0 -21 -1 -34.5t-2 -25t-5.5 -50t-9.5 -83.5l35 82q61 139 158 210t222 71q131 0 196 -66t65 -184q0 -91 -33.5 -200t-67 -208t-33.5 -165q0 -111 19 -197h-230q-8 45 -8 123q0 71 19 157.5t41.5 153.5 t41.5 146.5t19 138.5q0 117 -110 117q-70 0 -143 -82t-124 -197.5t-73 -230.5l-64 -326h-227zM479 1206l29 152q9 5 24 13t58.5 21t83.5 13q48 0 148.5 -20.5t148.5 -20.5q40 0 81 7t62 15l21 7l-31 -152q-9 -5 -24 -13t-58.5 -21t-83.5 -13q-48 0 -148.5 20.5t-148.5 20.5 q-40 0 -80.5 -7.5t-60.5 -14.5z" />
<glyph unicode="&#xf2;" d="M61 319q0 146 38.5 274t109.5 225.5t180.5 153.5t243.5 56q94 0 162.5 -28.5t106.5 -78t55.5 -108t17.5 -127.5q0 -148 -38 -276t-109 -225t-180.5 -152.5t-244.5 -55.5q-93 0 -161.5 28.5t-106.5 78t-56 108t-18 127.5zM274 1460q6 9 18 24t53 48.5t87 52.5 q25 -57 63.5 -117.5t76 -107t71 -84.5t53.5 -58l21 -20l-99 -92q-10 6 -28 18t-67 49.5t-91 76.5t-87.5 96.5t-70.5 113.5zM305 305q0 -91 37.5 -130.5t108.5 -39.5q64 0 119 56t89 142.5t53 183t19 183.5q0 91 -37 130.5t-108 39.5q-64 0 -119 -56t-89.5 -142t-53.5 -182.5 t-19 -184.5z" />
<glyph unicode="&#xf3;" d="M61 319q0 146 38.5 274t109.5 225.5t180.5 153.5t243.5 56q94 0 162.5 -28.5t106.5 -78t55.5 -108t17.5 -127.5q0 -148 -38 -276t-109 -225t-180.5 -152.5t-244.5 -55.5q-93 0 -161.5 28.5t-106.5 78t-56 108t-18 127.5zM305 305q0 -91 37.5 -130.5t108.5 -39.5 q64 0 119 56t89 142.5t53 183t19 183.5q0 91 -37 130.5t-108 39.5q-64 0 -119 -56t-89.5 -142t-53.5 -182.5t-19 -184.5zM555 1210q22 29 58 75t130.5 147t167.5 153q11 -8 29 -21.5t53 -50.5t47 -69q-69 -45 -167.5 -130t-162.5 -148l-63 -62z" />
<glyph unicode="&#xf4;" d="M61 319q0 146 38.5 274t109.5 225.5t180.5 153.5t243.5 56q94 0 162.5 -28.5t106.5 -78t55.5 -108t17.5 -127.5q0 -148 -38 -276t-109 -225t-180.5 -152.5t-244.5 -55.5q-93 0 -161.5 28.5t-106.5 78t-56 108t-18 127.5zM305 305q0 -91 37.5 -130.5t108.5 -39.5 q64 0 119 56t89 142.5t53 183t19 183.5q0 91 -37 130.5t-108 39.5q-64 0 -119 -56t-89.5 -142t-53.5 -182.5t-19 -184.5zM311 1219q27 30 72 77.5t153.5 151t182.5 154.5q52 -80 122.5 -177t114.5 -154l45 -57l-98 -92q-15 9 -39.5 25.5t-87.5 68t-110 103.5l-252 -199z" />
<glyph unicode="&#xf5;" d="M61 319q0 146 38.5 274t109.5 225.5t180.5 153.5t243.5 56q94 0 162.5 -28.5t106.5 -78t55.5 -108t17.5 -127.5q0 -148 -38 -276t-109 -225t-180.5 -152.5t-244.5 -55.5q-93 0 -161.5 28.5t-106.5 78t-56 108t-18 127.5zM305 305q0 -91 37.5 -130.5t108.5 -39.5 q64 0 119 56t89 142.5t53 183t19 183.5q0 91 -37 130.5t-108 39.5q-64 0 -119 -56t-89.5 -142t-53.5 -182.5t-19 -184.5zM352 1214l29 152q9 5 24 13t58.5 21t83.5 13q48 0 148.5 -20.5t148.5 -20.5q40 0 81 7t62 15l21 7l-31 -152q-9 -5 -24 -13t-58.5 -21t-83.5 -13 q-48 0 -148.5 20.5t-148.5 20.5q-40 0 -80.5 -7.5t-61.5 -14.5z" />
<glyph unicode="&#xf6;" d="M61 319q0 146 38.5 274t109.5 225.5t180.5 153.5t243.5 56q94 0 162.5 -28.5t106.5 -78t55.5 -108t17.5 -127.5q0 -148 -38 -276t-109 -225t-180.5 -152.5t-244.5 -55.5q-93 0 -161.5 28.5t-106.5 78t-56 108t-18 127.5zM305 305q0 -91 37.5 -130.5t108.5 -39.5 q64 0 119 56t89 142.5t53 183t19 183.5q0 91 -37 130.5t-108 39.5q-64 0 -119 -56t-89.5 -142t-53.5 -182.5t-19 -184.5zM358 1280q0 57 37 98t97 41q58 0 87 -32t29 -89q0 -56 -38 -95.5t-99 -39.5q-56 0 -84.5 32t-28.5 85zM745 1280q0 58 37.5 98.5t98.5 40.5 q57 0 85.5 -32t28.5 -89q0 -56 -37.5 -95.5t-97.5 -39.5q-58 0 -86.5 31.5t-28.5 85.5z" />
<glyph unicode="&#xf7;" horiz-adv-x="1075" d="M115 520l35 180h790l-31 -180h-794zM342 254q0 57 35 95t94 38q109 0 109 -111q0 -56 -35.5 -93.5t-93.5 -37.5q-54 0 -81.5 30t-27.5 79zM469 930q0 56 35.5 94.5t95.5 38.5q53 0 80 -29.5t27 -81.5q0 -56 -35 -93.5t-92 -37.5q-55 0 -83 30t-28 79z" />
<glyph unicode="&#xf8;" d="M61 319q0 146 38.5 274t109.5 225.5t180.5 153.5t243.5 56q66 0 125 -16l82 123l131 -88l-78 -117q82 -88 82 -244q0 -148 -38 -276t-109 -225t-180.5 -152.5t-244.5 -55.5q-64 0 -127 17l-79 -123l-131 88l75 117q-80 88 -80 243zM295 305l369 561q-36 8 -78 8 q-85 0 -154 -96t-103 -224.5t-34 -248.5zM371 137q43 -6 80 -6q64 0 120 56.5t92 142.5t57 183.5t21 184.5z" />
<glyph unicode="&#xf9;" horiz-adv-x="1118" d="M72 233q0 72 21 156t46.5 148.5t46.5 144t21 143.5q0 101 -12 144l194 49q39 -79 39 -207q0 -63 -19 -137t-42.5 -130.5t-42.5 -128t-19 -130.5q0 -117 111 -117q70 0 142.5 81.5t123 197t72.5 231.5l63 326h230l-109 -517q-23 -115 -23 -190q0 -61 14 -113.5t27 -75.5 t35 -55l-186 -73q-70 80 -70 202q0 33 15 164l-35 -82q-61 -139 -159.5 -209.5t-223.5 -70.5q-131 0 -195.5 65.5t-64.5 183.5zM291 1452q6 9 18 24t53 48.5t87 52.5q25 -57 63.5 -117.5t75.5 -107t70.5 -84.5t53.5 -58l21 -20l-98 -92q-10 6 -28 18t-67 49.5t-91 76.5 t-87.5 96.5t-70.5 113.5z" />
<glyph unicode="&#xfa;" horiz-adv-x="1118" d="M72 233q0 72 21 156t46.5 148.5t46.5 144t21 143.5q0 101 -12 144l194 49q39 -79 39 -207q0 -63 -19 -137t-42.5 -130.5t-42.5 -128t-19 -130.5q0 -117 111 -117q70 0 142.5 81.5t123 197t72.5 231.5l63 326h230l-109 -517q-23 -115 -23 -190q0 -61 14 -113.5t27 -75.5 t35 -55l-186 -73q-70 80 -70 202q0 33 15 164l-35 -82q-61 -139 -159.5 -209.5t-223.5 -70.5q-131 0 -195.5 65.5t-64.5 183.5zM571 1202q8 10 22 28.5t56 69t83 95.5t95.5 97t100.5 85q11 -8 29 -21.5t53 -50.5t47 -69q-69 -45 -167.5 -130t-161.5 -148l-64 -62z" />
<glyph unicode="&#xfb;" horiz-adv-x="1118" d="M72 233q0 72 21 156t46.5 148.5t46.5 144t21 143.5q0 101 -12 144l194 49q39 -79 39 -207q0 -63 -19 -137t-42.5 -130.5t-42.5 -128t-19 -130.5q0 -117 111 -117q70 0 142.5 81.5t123 197t72.5 231.5l63 326h230l-109 -517q-23 -115 -23 -190q0 -61 14 -113.5t27 -75.5 t35 -55l-186 -73q-70 80 -70 202q0 33 15 164l-35 -82q-61 -139 -159.5 -209.5t-223.5 -70.5q-131 0 -195.5 65.5t-64.5 183.5zM328 1210q27 30 71.5 77.5t153 151t182.5 154.5q53 -80 123.5 -177t115.5 -154l44 -56l-98 -92q-15 9 -39.5 25.5t-88 68t-110.5 103.5 l-252 -199z" />
<glyph unicode="&#xfc;" horiz-adv-x="1118" d="M72 233q0 72 21 156t46.5 148.5t46.5 144t21 143.5q0 101 -12 144l194 49q39 -79 39 -207q0 -63 -19 -137t-42.5 -130.5t-42.5 -128t-19 -130.5q0 -117 111 -117q70 0 142.5 81.5t123 197t72.5 231.5l63 326h230l-109 -517q-23 -115 -23 -190q0 -61 14 -113.5t27 -75.5 t35 -55l-186 -73q-70 80 -70 202q0 33 15 164l-35 -82q-61 -139 -159.5 -209.5t-223.5 -70.5q-131 0 -195.5 65.5t-64.5 183.5zM375 1272q0 58 37 98.5t98 40.5q57 0 86 -32t29 -89q0 -56 -38 -95.5t-98 -39.5q-58 0 -86 31.5t-28 85.5zM762 1272q0 58 37 98.5t98 40.5 q57 0 86 -32t29 -89q0 -56 -37.5 -95.5t-97.5 -39.5q-58 0 -86.5 31.5t-28.5 85.5z" />
<glyph unicode="&#xfd;" horiz-adv-x="1118" d="M72 233q0 72 21 156t45.5 148.5t45.5 144t21 143.5q0 96 -10 144l194 49q39 -79 39 -207q0 -63 -19 -137t-42.5 -130.5t-42.5 -128t-19 -130.5q0 -117 111 -117q69 0 141.5 81.5t123.5 197t73 231.5l63 326h230l-65 -288q-69 -329 -69 -417q0 -70 16.5 -181.5 t16.5 -172.5q0 -215 -111.5 -307.5t-322.5 -92.5q-163 0 -420 123l80 172q9 -4 53 -22.5t62.5 -26t59.5 -22t67.5 -21t61.5 -12.5t65 -6q93 0 147.5 60t54.5 151q0 15 -4 89t-4 154q0 29 8 94t9 72l-39 -86q-59 -139 -157.5 -209.5t-223.5 -70.5q-131 0 -195.5 65.5 t-64.5 183.5zM571 1202q8 10 22 28.5t56 69t83 95.5t96.5 97t101.5 85q11 -8 28.5 -21.5t52 -50.5t46.5 -69q-69 -45 -167.5 -130t-161.5 -148l-64 -62z" />
<glyph unicode="&#xfe;" horiz-adv-x="1075" d="M-31 -455l369 1899l231 41l-63 -346q-21 -112 -94 -332q65 115 146 164t183 49q57 0 103 -19t77.5 -51t52.5 -75.5t30.5 -92t9.5 -100.5q0 -196 -66 -352.5t-198.5 -251t-311.5 -94.5q-70 0 -155 18l-82 -416zM313 162q61 -21 121 -21q70 0 128 34.5t96 90.5t64 129 t37 147t11 148q0 87 -25 124.5t-79 37.5q-50 0 -101 -55.5t-94.5 -150.5t-80 -205.5t-66.5 -235.5z" />
<glyph unicode="&#xff;" horiz-adv-x="1118" d="M72 233q0 72 21 156t45.5 148.5t45.5 144t21 143.5q0 96 -10 144l194 49q39 -79 39 -207q0 -63 -19 -137t-42.5 -130.5t-42.5 -128t-19 -130.5q0 -117 111 -117q69 0 141.5 81.5t123.5 197t73 231.5l63 326h230l-65 -288q-69 -329 -69 -417q0 -70 16.5 -181.5 t16.5 -172.5q0 -215 -111.5 -307.5t-322.5 -92.5q-163 0 -420 123l80 172q9 -4 53 -22.5t62.5 -26t59.5 -22t67.5 -21t61.5 -12.5t65 -6q93 0 147.5 60t54.5 151q0 15 -4 89t-4 154q0 29 8 94t9 72l-39 -86q-59 -139 -157.5 -209.5t-223.5 -70.5q-131 0 -195.5 65.5 t-64.5 183.5zM375 1272q0 58 37 98.5t98 40.5q57 0 86 -32t29 -89q0 -56 -38 -95.5t-98 -39.5q-58 0 -86 31.5t-28 85.5zM762 1272q0 58 37 98.5t98 40.5q57 0 86 -32t29 -89q0 -56 -37.5 -95.5t-97.5 -39.5q-58 0 -86.5 31.5t-28.5 85.5z" />
<glyph unicode="&#x152;" horiz-adv-x="1671" d="M82 426q0 151 28.5 290.5t89.5 262.5t148 214.5t212.5 144.5t275.5 53q79 0 147 -21h739l-36 -172h-508l-76 -393h403l-37 -170h-399l-90 -463h526v-172h-788q-96 -27 -185 -27q-450 0 -450 453zM344 463q0 -311 258 -311q72 0 139 18l203 1030q-120 19 -178 19 q-84 0 -156 -49t-119.5 -128t-81.5 -179.5t-49.5 -202t-15.5 -197.5z" />
<glyph unicode="&#x153;" horiz-adv-x="1574" d="M61 319q0 146 38.5 274t109.5 225.5t180.5 153.5t243.5 56q212 0 272 -158q142 158 367 158q295 0 295 -221q0 -177 -174.5 -292.5t-450.5 -129.5q-2 -25 -2 -72q0 -170 150 -170q47 0 125 21t132 42l54 21l47 -147q-8 -4 -23.5 -11t-62 -25t-92.5 -31.5t-109 -24.5 t-119 -11q-213 0 -276 154q-138 -154 -363 -154q-93 0 -161.5 28.5t-106.5 78t-56 108t-18 127.5zM305 305q0 -91 37.5 -130.5t108.5 -39.5q64 0 119 56t89 142.5t53 183t19 183.5q0 91 -37 130.5t-108 39.5q-64 0 -119 -56t-89.5 -142t-53.5 -182.5t-19 -184.5zM967 532 q170 10 269 83.5t99 154.5q0 100 -110 100q-89 0 -155.5 -96.5t-102.5 -241.5z" />
<glyph unicode="&#x178;" horiz-adv-x="940" d="M82 1370h242l135 -530q55 131 139 247t161 188t159 128l143 -115q-186 -178 -257 -259q-182 -206 -258 -432q-75 -221 -75 -519v-78h-235v82q0 262 90 481zM309 1622q0 58 37 98.5t98 40.5q57 0 86 -32t29 -89q0 -56 -37.5 -95.5t-97.5 -39.5q-58 0 -86.5 31.5 t-28.5 85.5zM696 1622q0 58 37 98.5t98 40.5q57 0 86 -32t29 -89q0 -56 -37.5 -95.5t-97.5 -39.5q-58 0 -86.5 31.5t-28.5 85.5z" />
<glyph unicode="&#x2c6;" horiz-adv-x="980" d="M139 1194q27 30 72 77.5t154 151t182 154.5q53 -80 124 -176.5t115 -153.5l45 -57l-98 -92q-15 9 -39.5 25.5t-87.5 67.5t-110 103l-254 -198z" />
<glyph unicode="&#x2dc;" horiz-adv-x="983" d="M164 1206l31 152q8 5 23 13t58.5 21t83.5 13q48 0 148.5 -20.5t148.5 -20.5q40 0 80.5 7t60.5 15l21 7l-28 -152q-9 -5 -24 -13t-58.5 -21t-83.5 -13q-48 0 -148.5 20.5t-148.5 20.5q-40 0 -81 -7.5t-62 -14.5z" />
<glyph unicode="&#x2000;" horiz-adv-x="943" />
<glyph unicode="&#x2001;" horiz-adv-x="1886" />
<glyph unicode="&#x2002;" horiz-adv-x="943" />
<glyph unicode="&#x2003;" horiz-adv-x="1886" />
<glyph unicode="&#x2004;" horiz-adv-x="628" />
<glyph unicode="&#x2005;" horiz-adv-x="471" />
<glyph unicode="&#x2006;" horiz-adv-x="314" />
<glyph unicode="&#x2007;" horiz-adv-x="314" />
<glyph unicode="&#x2008;" horiz-adv-x="235" />
<glyph unicode="&#x2009;" horiz-adv-x="377" />
<glyph unicode="&#x200a;" horiz-adv-x="104" />
<glyph unicode="&#x2010;" horiz-adv-x="757" d="M82 561l35 170h559l-33 -170h-561z" />
<glyph unicode="&#x2011;" horiz-adv-x="757" d="M82 561l35 170h559l-33 -170h-561z" />
<glyph unicode="&#x2012;" horiz-adv-x="757" d="M82 561l35 170h559l-33 -170h-561z" />
<glyph unicode="&#x2013;" horiz-adv-x="993" d="M-33 569l33 168h993l-32 -168h-994z" />
<glyph unicode="&#x2014;" horiz-adv-x="1386" d="M-33 569l33 168h1386l-32 -168h-1387z" />
<glyph unicode="&#x2018;" horiz-adv-x="509" d="M174 997q0 71 33.5 147t86.5 138.5t114.5 113t121.5 79.5l68 -113q-184 -123 -184 -305q0 -81 6 -133q-5 -4 -14.5 -10t-45 -16.5t-77.5 -10.5q-109 0 -109 110z" />
<glyph unicode="&#x2019;" horiz-adv-x="509" d="M176 1012q184 121 184 303q0 83 -6 135q5 4 15.5 10t46.5 16.5t78 10.5q108 0 108 -111q0 -71 -33.5 -147t-86.5 -139t-115 -113t-123 -78z" />
<glyph unicode="&#x201a;" horiz-adv-x="612" d="M-29 -188q185 122 185 303q0 83 -6 135q5 4 15 10t46 16.5t78 10.5q108 0 108 -111q0 -94 -57.5 -193.5t-137.5 -171.5t-163 -112z" />
<glyph unicode="&#x201c;" horiz-adv-x="907" d="M174 997q0 71 33.5 147t86.5 138.5t114.5 113t121.5 79.5l68 -113q-184 -123 -184 -305q0 -81 6 -133q-5 -4 -14.5 -10t-45 -16.5t-77.5 -10.5q-109 0 -109 110zM569 997q0 94 58 194t137.5 172t161.5 112l69 -113q-184 -121 -184 -305q0 -81 6 -133q-5 -4 -15 -10 t-46 -16.5t-78 -10.5q-109 0 -109 110z" />
<glyph unicode="&#x201d;" horiz-adv-x="907" d="M174 1012q184 121 184 303q0 83 -6 135q5 4 15.5 10t46.5 16.5t78 10.5q108 0 108 -111q0 -71 -33.5 -147t-86.5 -139t-115 -113t-123 -78zM569 1012q185 122 185 303q0 100 -4 135q5 4 14.5 10t45 16.5t77.5 10.5q108 0 108 -111q0 -94 -57.5 -194t-137 -172 t-161.5 -111z" />
<glyph unicode="&#x201e;" horiz-adv-x="907" d="M-90 -188q184 121 184 303q0 83 -6 135q5 4 15 10t46 16.5t78 10.5q109 0 109 -111q0 -71 -33.5 -147t-86.5 -138.5t-114.5 -112.5t-121.5 -79zM305 -188q187 123 187 303q0 74 -7 135q5 4 15 10t45.5 16.5t77.5 10.5q108 0 108 -111q0 -71 -33.5 -147t-86.5 -138.5 t-114.5 -112.5t-121.5 -79z" />
<glyph unicode="&#x2022;" horiz-adv-x="608" d="M84 618q0 100 62.5 169t166.5 69q96 0 145.5 -52.5t49.5 -146.5q0 -97 -64.5 -165t-169.5 -68q-94 0 -142 51.5t-48 142.5z" />
<glyph unicode="&#x202f;" horiz-adv-x="377" />
<glyph unicode="&#x2039;" horiz-adv-x="735" d="M72 502q52 56 122.5 123t134.5 122.5t119 101.5t89 73.5t32 25.5l95 -119l-324 -329q211 -342 215 -348l-125 -97q-26 28 -68.5 74t-138.5 165t-151 208z" />
<glyph unicode="&#x203a;" horiz-adv-x="735" d="M74 174l321 328q-134 217 -213 350l123 96q10 -10 26.5 -27.5t64.5 -71t90.5 -104.5t94 -119t85.5 -124q-52 -56 -122.5 -123t-134.5 -122.5t-119 -102t-89.5 -74t-32.5 -25.5z" />
<glyph unicode="&#x205f;" horiz-adv-x="471" />
<glyph unicode="&#x20ac;" horiz-adv-x="1146" d="M51 381l35 178h107q6 67 20 129h-102l34 178h125q39 95 92.5 174t124 142.5t163 99t198.5 35.5q205 0 268 -180l-155 -101q-30 55 -67.5 79t-100.5 24q-95 0 -168.5 -75.5t-124.5 -197.5h426l-62 -178h-424q-17 -82 -22 -129h399l-61 -178h-336q18 -105 70.5 -167 t138.5 -62q128 0 243 53l41 -144q-172 -73 -360 -73q-164 0 -259.5 101t-107.5 292h-135z" />
<glyph unicode="&#xe000;" horiz-adv-x="1013" d="M0 0v1014h1014v-1014h-1014z" />
</font>
</defs>
</svg>
