<?xml version="1.0" standalone="no"?>
<!DOCTYPE svg PUBLIC "-//W3C//DTD SVG 1.1//EN" "http://www.w3.org/Graphics/SVG/1.1/DTD/svg11.dtd" >
<svg xmlns="http://www.w3.org/2000/svg">
<metadata></metadata>
<defs>
<font id="amaranthregular" horiz-adv-x="1114" >
<font-face units-per-em="2048" ascent="1536" descent="-512" />
<missing-glyph horiz-adv-x="522" />
<glyph horiz-adv-x="2048" />
<glyph horiz-adv-x="2048" />
<glyph unicode="&#xd;" horiz-adv-x="2048" />
<glyph unicode=" "  horiz-adv-x="522" />
<glyph unicode="&#x09;" horiz-adv-x="522" />
<glyph unicode="&#xa0;" horiz-adv-x="522" />
<glyph unicode="!" horiz-adv-x="696" d="M158 158q0 82 48.5 135t135.5 53q84 0 131 -50t47 -130q0 -81 -48 -133.5t-134 -52.5q-83 0 -131.5 51.5t-48.5 126.5zM199 451v935h356l-59 -935h-297z" />
<glyph unicode="&#x22;" horiz-adv-x="839" d="M86 1386h272l-22 -526h-227zM481 1386h273l-23 -526h-227z" />
<glyph unicode="#" horiz-adv-x="1234" d="M66 276l26 209h182l35 273h-196l26 209h197l31 247h211l-33 -247h207l30 247h211l-32 -247h188l-27 -209h-188l-35 -273h203l-27 -209h-203l-34 -276h-211l37 276h-207l-35 -276h-211l37 276h-182zM483 485h207l35 273h-207z" />
<glyph unicode="$" horiz-adv-x="1144" d="M86 166l111 240q65 -44 166.5 -92t175.5 -48t110.5 32t36.5 81q0 28 -11 49t-40 39.5t-56.5 30.5t-82.5 32q-183 69 -272 163t-89 241q0 118 84 203.5t217 115.5v168h260v-164q100 -14 189 -47.5t147 -72.5l-114 -222q-197 109 -310 109q-123 0 -123 -80q0 -47 52.5 -82 t187.5 -88q163 -64 237 -153t74 -226q0 -130 -90.5 -232t-249.5 -132v-201h-260v203q-178 29 -350 133z" />
<glyph unicode="%" horiz-adv-x="1933" d="M66 836q0 165 97.5 274t266.5 109q174 0 263 -98.5t89 -268.5q0 -165 -96.5 -274t-267.5 -109q-172 0 -262 99.5t-90 267.5zM348 852q0 -69 6 -112.5t24.5 -72t51.5 -28.5q40 0 55 50t15 151q0 106 -16.5 157.5t-65.5 51.5q-40 0 -55 -48.5t-15 -148.5zM545 -16l575 1233 h273l-578 -1233h-270zM1151 350q0 164 98 273.5t267 109.5q174 0 263 -98t89 -268q0 -165 -97 -274t-268 -109q-172 0 -262 99t-90 267zM1434 367q0 -70 5.5 -113t24 -71.5t52.5 -28.5q41 0 55 48.5t14 151.5q0 106 -16.5 157.5t-65.5 51.5q-40 0 -54.5 -47.5t-14.5 -148.5z " />
<glyph unicode="&#x26;" horiz-adv-x="1234" d="M72 352q0 67 19.5 128t53 108.5t71 83.5t81.5 65q-49 91 -49 181q0 139 97.5 227t275.5 88q112 0 200 -32t168 -116l-166 -180q-28 27 -47 43t-52 32.5t-62 16.5q-78 0 -78 -79q0 -88 70 -180t214 -218q40 71 60 131l237 -94q-68 -147 -102 -203l176 -151l-162 -213 l-184 151q-170 -153 -404 -153q-185 0 -301 102t-116 262zM389 387q0 -65 42.5 -105t119.5 -40q76 0 149 57q-171 143 -260 242q-51 -65 -51 -154z" />
<glyph unicode="'" horiz-adv-x="477" d="M102 1386h273l-23 -526h-227z" />
<glyph unicode="(" horiz-adv-x="788" d="M127 551q0 151 31 290t77.5 238.5t107.5 185t113 136.5t103 86l170 -189q-50 -51 -93.5 -115.5t-87.5 -157t-69.5 -215.5t-25.5 -261q0 -139 25.5 -263t69 -216.5t87.5 -157t94 -115.5l-170 -188q-51 35 -103 85.5t-113.5 136.5t-107.5 186t-77 240.5t-31 293.5z" />
<glyph unicode=")" horiz-adv-x="788" d="M74 -203q50 51 94.5 115.5t88.5 157t69.5 216.5t25.5 263q0 137 -26 260.5t-70 216t-88 156.5t-94 116l170 189q51 -35 103 -86t113 -136.5t107.5 -185t77.5 -238.5t31 -290q0 -153 -31 -293.5t-77 -240.5t-107.5 -186t-113.5 -136.5t-103 -85.5z" />
<glyph unicode="*" horiz-adv-x="976" d="M86 1006l88 256l203 -95l-25 219h273l-27 -219l205 95l88 -256l-225 -50l155 -168l-223 -161l-111 192l-108 -192l-223 161l155 168z" />
<glyph unicode="+" horiz-adv-x="1034" d="M106 496v237h285v287h250v-287h287v-237h-287v-299h-250v299h-285z" />
<glyph unicode="," horiz-adv-x="612" d="M66 -197q124 91 124 232q0 50 -19.5 124t-20.5 81q6 6 20.5 15t60.5 21.5t103 12.5q89 0 129.5 -52t40.5 -135q0 -137 -79.5 -257.5t-240.5 -202.5z" />
<glyph unicode="-" horiz-adv-x="768" d="M86 535v227h596v-227h-596z" />
<glyph unicode="." horiz-adv-x="577" d="M106 158q0 82 49 135t136 53q84 0 131 -50t47 -130q0 -81 -48 -133.5t-134 -52.5q-83 0 -132 51.5t-49 126.5z" />
<glyph unicode="/" horiz-adv-x="915" d="M-37 -258l651 1751h338l-651 -1751h-338z" />
<glyph unicode="0" horiz-adv-x="1216" d="M76 633q0 206 62 360t186.5 241t298.5 87q251 0 383.5 -171.5t132.5 -483.5q0 -313 -141.5 -498.5t-401.5 -185.5q-252 0 -386 169t-134 482zM424 655q0 -86 5 -151.5t18.5 -123t35 -94.5t56.5 -58t82 -21q90 0 128.5 106t38.5 328q0 110 -8 187t-28.5 140t-59 94.5 t-96.5 31.5q-92 0 -132 -107.5t-40 -331.5z" />
<glyph unicode="1" horiz-adv-x="862" d="M0 1038q130 55 232 116.5t192 156.5h250v-1311h-324v958q-117 -88 -237 -129z" />
<glyph unicode="2" horiz-adv-x="1034" d="M18 86q36 51 140 193t151 210q154 163 215.5 259t61.5 174q0 56 -32.5 92.5t-88.5 36.5q-50 0 -112 -23t-177 -76l-119 240q280 129 467 129q184 0 296 -91t112 -280q0 -130 -69 -258.5t-218 -285.5l-123 -130h445v-276h-912z" />
<glyph unicode="3" horiz-adv-x="1046" d="M55 100l107 248q196 -98 295 -98q69 0 118.5 47.5t49.5 128.5q0 60 -44.5 98.5t-103.5 38.5q-21 0 -52 -4t-55 -9t-47 -10t-24 -5l-94 229q67 19 108.5 32.5t94.5 34.5t83 40.5t51 46t21 55.5q0 36 -22.5 57t-63.5 21q-44 0 -93 -14t-83.5 -30t-101.5 -51l-119 242 q244 123 440 123q176 0 283.5 -80.5t107.5 -226.5q0 -96 -50 -168t-132 -113q115 -33 178.5 -121t63.5 -198q0 -65 -15.5 -125t-51.5 -116.5t-90 -98t-137.5 -67t-187.5 -25.5q-86 0 -207.5 35t-226.5 83z" />
<glyph unicode="4" horiz-adv-x="1081" d="M25 311v181l342 819h323l-305 -731h170v286l324 56v-342h186l-47 -269h-139v-311h-324v311h-530z" />
<glyph unicode="5" horiz-adv-x="1071" d="M76 100l106 248q201 -98 297 -98q72 0 116 47t44 135q0 68 -46 103.5t-126 35.5q-97 0 -199 -41l-143 107l74 674h739l-49 -277h-412l-28 -211q83 19 143 19q99 0 176.5 -35t124.5 -95t71.5 -135t24.5 -159q0 -65 -15 -125.5t-51 -118t-88.5 -99.5t-134 -67.5 t-182.5 -25.5q-89 0 -212.5 34.5t-229.5 83.5z" />
<glyph unicode="6" horiz-adv-x="1120" d="M76 651q0 134 38 252.5t109.5 212t187 148.5t259.5 55q75 0 157 -16.5t136 -42.5l-86 -228q-135 41 -218 41q-110 0 -164 -83t-67 -234q114 90 242 90q176 0 285.5 -108.5t109.5 -317.5q0 -192 -134.5 -315t-359.5 -123q-101 0 -183 32.5t-139.5 91.5t-96.5 142.5 t-57.5 184t-18.5 218.5zM426 551q7 -184 47.5 -266t118.5 -82q72 0 106.5 61t34.5 154q0 205 -149 205q-42 0 -85.5 -22.5t-72.5 -49.5z" />
<glyph unicode="7" horiz-adv-x="960" d="M2 1305h903v-185l-399 -1120h-344l366 1028h-477z" />
<glyph unicode="8" horiz-adv-x="1136" d="M86 342q0 201 254 354q-97 49 -155 123t-58 170q0 67 27.5 123t73 94t105 64.5t121.5 38.5t124 12q80 0 153.5 -20t134 -58.5t97 -102t36.5 -143.5q0 -172 -200 -290q123 -66 186.5 -158.5t63.5 -194.5q0 -73 -26.5 -135t-72 -105t-107.5 -73.5t-131.5 -44.5t-144.5 -14 q-91 0 -175 22t-153.5 64.5t-111 113.5t-41.5 160zM430 330q0 -62 41 -98.5t107 -36.5q55 0 88.5 37.5t33.5 93.5q0 107 -131 215q-139 -92 -139 -211zM457 1008q0 -103 112 -172q99 68 99 172q0 52 -30.5 76t-72.5 24t-75 -23.5t-33 -76.5z" />
<glyph unicode="9" horiz-adv-x="1118" d="M55 887q0 191 134.5 311.5t359.5 120.5q125 0 221 -49t155.5 -138.5t89 -209t29.5 -267.5q0 -106 -23 -204.5t-71.5 -184t-117.5 -148.5t-167 -99.5t-214 -36.5q-74 0 -156 17t-137 42l86 229q123 -43 219 -43q202 0 229 322q-113 -88 -241 -88q-176 0 -286 108.5 t-110 317.5zM387 889q0 -103 39.5 -154t110.5 -51t157 70q-7 185 -47.5 264.5t-118.5 79.5q-71 0 -106 -58.5t-35 -150.5z" />
<glyph unicode=":" horiz-adv-x="618" d="M137 158q0 82 49 135t136 53q84 0 131 -50t47 -130q0 -81 -48.5 -133.5t-134.5 -52.5q-83 0 -131.5 51.5t-48.5 126.5zM137 860q0 81 49.5 135t135.5 54q84 0 131 -50.5t47 -130.5q0 -83 -48.5 -135.5t-134.5 -52.5q-83 0 -131.5 51.5t-48.5 128.5z" />
<glyph unicode=";" horiz-adv-x="632" d="M61 -197q125 92 125 232q0 50 -20 124t-21 81q6 6 21 15t61 21.5t103 12.5q89 0 129.5 -52t40.5 -135q0 -137 -79.5 -257.5t-240.5 -202.5zM121 860q0 82 48 135.5t134 53.5q84 0 132 -50.5t48 -130.5q0 -82 -48.5 -135t-135.5 -53q-83 0 -130.5 51.5t-47.5 128.5z" />
<glyph unicode="&#x3c;" horiz-adv-x="917" d="M45 494v243l694 338l109 -252l-309 -141q-114 -53 -164 -66q100 -36 164 -65l313 -148l-109 -249z" />
<glyph unicode="=" horiz-adv-x="1013" d="M127 317v238h760v-238h-760zM127 674v237h760v-237h-760z" />
<glyph unicode="&#x3e;" horiz-adv-x="917" d="M66 403l313 148q95 43 160 65q-17 4 -67.5 24t-92.5 42l-309 141l108 252l694 -338v-243l-698 -340z" />
<glyph unicode="?" horiz-adv-x="923" d="M59 1305q110 50 202.5 76t213.5 26q183 0 286 -78.5t103 -226.5q0 -56 -18 -112.5t-57.5 -118t-66 -97t-79.5 -100.5q-66 -82 -104 -140.5t-62 -127.5l-252 67q0 75 28.5 151t69.5 135.5t81.5 113.5t69 105.5t28.5 92.5t-29.5 74t-77.5 33q-34 0 -70 -10t-62 -21.5 t-103 -46.5zM174 158q0 83 48 135.5t134 52.5q84 0 131.5 -50t47.5 -130q0 -81 -48.5 -133.5t-134.5 -52.5q-83 0 -130.5 51t-47.5 127z" />
<glyph unicode="@" horiz-adv-x="1959" d="M90 408q0 181 51 336t141.5 267.5t214.5 192t271.5 119t310.5 39.5q166 0 309.5 -52t251.5 -148.5t170 -246t62 -333.5q0 -160 -55 -296.5t-150 -217t-207 -80.5q-234 0 -311 207q-38 -106 -104 -156.5t-168 -50.5q-184 0 -276.5 126.5t-92.5 348.5q0 224 133.5 367 t347.5 143q71 0 162.5 -13.5t155 -26.5t65.5 -13v-476q0 -223 92 -223q47 0 85.5 55.5t58.5 134.5t20 158q0 272 -155.5 416.5t-415.5 144.5q-151 0 -280.5 -44.5t-229 -131t-156.5 -225t-57 -313.5q0 -97 17 -180.5t58 -159t102.5 -129t156.5 -84.5t215 -31q105 0 224 28 t175 50l76 -199q-52 -28 -199.5 -69t-290.5 -41q-120 0 -227.5 23.5t-210.5 82t-176.5 148.5t-118.5 231.5t-45 321.5zM831 485q0 -63 3 -105.5t12 -84.5t29 -63t51 -21q59 0 100 89t41 212v221q-1 0 -19.5 5.5t-33.5 8.5t-29 3q-154 0 -154 -265z" />
<glyph unicode="A" horiz-adv-x="1329" d="M-2 0l526 1386h301l508 -1386h-342l-102 334h-449l-106 -334h-336zM518 584h295q-57 167 -147 456q-64 -215 -148 -456z" />
<glyph unicode="B" horiz-adv-x="1175" d="M127 0v1386q20 0 199 2.5t227 2.5q254 0 389 -96t135 -265q0 -105 -67 -185t-195 -122q151 -44 227 -130t76 -206q0 -193 -148 -291t-440 -98q-41 0 -208.5 1t-194.5 1zM465 221h100q197 0 197 174q0 86 -49 142.5t-158 56.5q-54 0 -90 -4v-369zM465 805h94 q71 0 117.5 42.5t46.5 137.5q0 182 -172 182q-70 0 -86 -2v-360z" />
<glyph unicode="C" horiz-adv-x="1124" d="M80 676q0 161 38.5 293t113.5 230t194 152t272 54q79 0 143 -13.5t112 -39.5t81 -53t66 -64l-185 -186q-54 65 -106 90.5t-111 25.5q-129 0 -191.5 -121.5t-62.5 -345.5q0 -109 14 -192t46 -147.5t88 -98t135 -33.5q124 0 266 58l74 -230q-161 -67 -381 -67 q-606 0 -606 688z" />
<glyph unicode="D" horiz-adv-x="1325" d="M127 0v1386q5 0 186 2.5t271 2.5q170 0 299 -52t209 -147.5t119.5 -223.5t39.5 -286q0 -328 -166.5 -507t-506.5 -179q-72 0 -208.5 2t-242.5 2zM465 236q52 -3 104 -3q172 0 245 113.5t73 331.5q0 475 -318 475q-23 0 -53 -1t-51 -1v-915z" />
<glyph unicode="E" horiz-adv-x="1073" d="M127 0v1386h883v-247h-545v-297h453l-39 -244h-414v-350h573v-248h-911z" />
<glyph unicode="F" horiz-adv-x="1026" d="M127 0v1386h883v-245h-545v-318h457l-41 -243h-416v-580h-338z" />
<glyph unicode="G" horiz-adv-x="1251" d="M72 676q0 161 38.5 292.5t115 230t199 152.5t282.5 54q123 0 234 -47.5t183 -134.5l-157 -193q-139 135 -260 135q-271 0 -271 -469q0 -220 51.5 -344.5t153.5 -124.5q52 0 99 51.5t73.5 129t26.5 155.5v154h323v-654q0 -96 -24 -174t-58.5 -128t-93 -94.5t-106 -69 t-119.5 -54.5l-123 213q130 72 181.5 156t51.5 221v14q-42 -77 -120 -119t-183 -42q-239 0 -368 182t-129 508z" />
<glyph unicode="H" horiz-adv-x="1409" d="M127 0v1386h338v-542h479v542h336v-1386h-336v594h-479v-594h-338z" />
<glyph unicode="I" horiz-adv-x="591" d="M127 0v1386h338v-1386h-338z" />
<glyph unicode="J" horiz-adv-x="583" d="M-88 -229q50 26 87 53t59 55.5t35 51t18.5 54t6.5 49t1 50.5v1302h336v-1298q0 -90 -21 -164.5t-55 -128t-89 -101.5t-110 -81t-131 -70z" />
<glyph unicode="K" horiz-adv-x="1306" d="M127 0v1386h338v-1386h-338zM487 760v24q60 29 108 64t85 79t65.5 90.5t51.5 107.5t40 121.5t35 139.5h336q-28 -140 -66 -248t-85.5 -184t-93.5 -126.5t-107 -98.5l479 -729h-377z" />
<glyph unicode="L" horiz-adv-x="937" d="M127 0v1386h338v-1138h487v-248h-825z" />
<glyph unicode="M" horiz-adv-x="1761" d="M106 0l82 1386h291l320 -798q50 -136 84 -248q42 137 86 248l319 798h285l82 -1386h-318l-12 279q-3 73 -3 237q0 33 -1 63q0 121 2 199q-70 -200 -143 -366l-174 -412h-256l-170 393q-87 217 -148 385q0 -399 -4 -499l-10 -279h-312z" />
<glyph unicode="N" horiz-adv-x="1411" d="M127 0v1386h276l400 -593q11 -17 166 -267q-1 20 -8.5 150t-8.5 180l-6 530h338v-1386h-289l-395 598q-21 30 -88 140.5t-72 117.5q19 -266 19 -324l6 -532h-338z" />
<glyph unicode="O" horiz-adv-x="1419" d="M76 676q0 162 40 294.5t118.5 230t203 151t285.5 53.5q159 0 277.5 -48t193 -140t111 -220t36.5 -292q0 -161 -40 -292t-118.5 -226t-202.5 -147t-284 -52q-620 0 -620 688zM440 698q0 -109 13.5 -191t45 -147t88.5 -99t138 -34q252 0 252 457q0 109 -13.5 192.5 t-44.5 150.5t-88 102.5t-137 35.5q-254 0 -254 -467z" />
<glyph unicode="P" d="M127 0v1386q12 0 188.5 2.5t237.5 2.5q257 0 390.5 -110.5t133.5 -311.5q0 -215 -145.5 -327t-405.5 -112h-61v-530h-338zM465 754h86q74 0 123 51t49 147q0 93 -45 153.5t-137 61.5q-44 0 -76 -4v-409z" />
<glyph unicode="Q" horiz-adv-x="1441" d="M72 686q0 208 75.5 369.5t225 255.5t352.5 94q303 0 465 -187t162 -516q0 -338 -139 -561.5t-365 -298.5q57 -28 125 -28q57 0 121.5 18.5t101.5 35t119 56.5l110 -225q-102 -68 -203.5 -102.5t-222.5 -34.5q-140 0 -302 63t-304 189l60 182q39 -8 98 -8 q201 0 317.5 183.5t116.5 508.5q0 110 -14 194.5t-46.5 152t-90 103t-138.5 35.5q-129 0 -194.5 -121t-65.5 -339q0 -128 19 -206.5t55 -119t98 -62.5l-33 -221q-124 7 -222 58t-158.5 132.5t-91.5 183t-31 216.5z" />
<glyph unicode="R" horiz-adv-x="1226" d="M127 0v1386q18 0 197 2.5t229 2.5q260 0 392 -101t132 -297q0 -244 -235 -348q27 -15 50.5 -33.5t47.5 -47.5t41 -51t41 -66t37 -68.5t39.5 -84t38.5 -87t43.5 -101.5t44.5 -106h-363q-32 69 -67.5 152t-57 133t-47 106t-44.5 87.5t-42.5 59t-48.5 39t-55 11.5h-35v-588 h-338zM465 799h86q76 0 124 46t48 136q0 188 -182 188h-76v-370z" />
<glyph unicode="S" horiz-adv-x="1077" d="M45 135l111 242q58 -40 160.5 -90.5t172.5 -50.5q166 0 166 153q0 68 -44.5 106t-147.5 80q-94 39 -160 78.5t-117 91t-75.5 117t-24.5 146.5q0 118 64.5 210t169 139.5t227.5 47.5q136 0 259 -39.5t202 -93.5l-119 -225l-20 11q-20 11 -25.5 14t-26.5 14t-30.5 15.5 t-30 14t-33.5 14t-32.5 11.5t-34 10t-32 5.5t-32.5 2.5q-68 0 -104.5 -29t-36.5 -75q4 -67 57 -113t186 -102q173 -72 249.5 -160.5t76.5 -239.5q0 -193 -134 -322.5t-354 -129.5q-243 0 -487 147z" />
<glyph unicode="T" horiz-adv-x="1038" d="M4 1139v247h1030l-43 -247h-319v-1139h-338v1139h-330z" />
<glyph unicode="U" horiz-adv-x="1368" d="M106 543v843h336v-825q0 -313 254 -313q110 0 169 79.5t59 233.5v825h338v-843q0 -91 -19.5 -170.5t-64 -151t-111.5 -122.5t-168.5 -81t-228.5 -30q-122 0 -219 30t-160.5 81t-106 123t-60.5 151.5t-18 169.5z" />
<glyph unicode="V" horiz-adv-x="1314" d="M-4 1386h356l185 -552q57 -174 122 -422q55 211 127 419l189 555h344l-518 -1386h-287z" />
<glyph unicode="W" horiz-adv-x="1867" d="M12 1386h336l131 -520q39 -153 76 -387q4 17 23.5 106.5t35.5 156t33 122.5l156 522h274l160 -526q20 -67 36.5 -139t31.5 -145.5t22 -104.5q25 202 72 391l129 524h340l-385 -1386h-273l-198 633q-22 71 -48.5 192t-27.5 123q-2 -9 -15.5 -78.5t-28 -133.5t-28.5 -109 l-194 -627h-273z" />
<glyph unicode="X" horiz-adv-x="1300" d="M0 0l430 727l-389 659h369l194 -350q4 -8 19.5 -38t25.5 -48q8 14 24 43t23 41l197 352h369l-392 -661l430 -725h-372l-230 410q-5 6 -49 88l-47 -88l-229 -410h-373z" />
<glyph unicode="Y" horiz-adv-x="1206" d="M0 1386h356l246 -530l252 530h352l-442 -872v-514h-336v532z" />
<glyph unicode="Z" horiz-adv-x="1122" d="M68 1386h970v-231l-553 -879q107 5 140 5h440v-281h-991v229l561 881q-102 -4 -162 -4h-354z" />
<glyph unicode="[" horiz-adv-x="821" d="M147 -381v1856h590v-215h-260v-1426h260v-215h-590z" />
<glyph unicode="\" horiz-adv-x="915" d="M-37 1493h338l651 -1751h-338z" />
<glyph unicode="]" horiz-adv-x="821" d="M84 -166h262v1426h-262v215h590v-1856h-590v215z" />
<glyph unicode="^" horiz-adv-x="1153" d="M86 635l367 751h245l367 -751l-281 -49l-143 311q-33 67 -66 164q-32 -95 -65 -164l-143 -313z" />
<glyph unicode="_" horiz-adv-x="1024" d="M0 -106h1024v-228h-1024v228z" />
<glyph unicode="`" horiz-adv-x="1007" d="M53 1522l213 202l375 -438l-137 -145q-1 1 -22.5 14.5t-47.5 31t-62.5 43.5t-76.5 58t-81 68t-83.5 79t-77.5 87z" />
<glyph unicode="a" d="M55 498q0 236 143.5 390t370.5 154q48 0 107 -6t109.5 -15t94 -17.5t70.5 -14.5l27 -6v-489q0 -91 11.5 -168.5t28.5 -123t33.5 -78.5t27.5 -46l12 -12l-261 -82q-8 8 -21 23t-39.5 68t-37.5 113q-71 -200 -280 -200q-196 0 -296 136.5t-100 373.5zM399 518 q0 -54 1.5 -90t7.5 -78t16.5 -66.5t31 -41.5t48.5 -17q62 0 105.5 97.5t43.5 228.5v237q-38 17 -84 17q-64 0 -103 -38.5t-53 -99t-14 -149.5z" />
<glyph unicode="b" horiz-adv-x="1093" d="M117 47v1383l323 55v-545q79 102 213 102q189 0 287 -137t98 -375q0 -235 -143.5 -388.5t-370.5 -153.5q-77 0 -174.5 13.5t-156 26.5t-76.5 19zM440 240q60 -15 84 -15q64 0 103 38.5t53 98.5t14 148q0 70 -2.5 113t-12.5 90t-32 69.5t-57 22.5q-64 0 -107 -103 t-43 -243v-219z" />
<glyph unicode="c" horiz-adv-x="858" d="M55 485q0 269 138.5 416.5t359.5 147.5q96 0 173 -39.5t126 -106.5l-160 -166q-30 35 -56 52.5t-63 17.5q-24 0 -44.5 -4.5t-45.5 -22t-42.5 -47t-29.5 -84.5t-12 -129t13 -129.5t32.5 -86.5t48 -49.5t54 -24t55.5 -5.5q49 0 172 41l60 -215q-4 -4 -37.5 -19 t-110.5 -32.5t-158 -17.5q-241 0 -357 133.5t-116 369.5z" />
<glyph unicode="d" d="M55 498q0 236 143.5 390t370.5 154q11 0 25 -1t31.5 -2.5t27.5 -2.5v447l324 -53v-936q0 -91 12 -169t26.5 -121t34.5 -79.5t27 -44.5t13 -14l-261 -82q-10 10 -22 24.5t-38.5 67.5t-37.5 112q-71 -200 -280 -200q-196 0 -296 136.5t-100 373.5zM399 518q0 -54 1.5 -90 t7.5 -78t16.5 -66.5t31 -41.5t48.5 -17q62 0 105.5 97.5t43.5 228.5v237q-38 17 -84 17q-64 0 -103 -38.5t-53 -99t-14 -149.5z" />
<glyph unicode="e" horiz-adv-x="980" d="M55 485q0 134 40 242t110.5 178t164.5 107t205 37q183 0 271 -84.5t88 -225.5q0 -151 -143 -256t-385 -125q30 -137 167 -137q53 0 125.5 16.5t119.5 32.5l46 17l62 -213q-21 -10 -58 -25.5t-143.5 -41t-202.5 -25.5q-241 0 -354 133t-113 370zM389 565q110 3 166.5 55 t56.5 111q0 38 -21.5 62t-55.5 24q-49 0 -82.5 -40t-47.5 -94t-16 -118z" />
<glyph unicode="f" horiz-adv-x="755" d="M-16 -217q102 54 154 113t52 133v753h-157v246h157q-26 67 -26 133q0 148 100.5 233t263.5 85q104 0 171.5 -33t123.5 -96l-155 -164q-36 51 -88 51q-48 0 -80.5 -33t-32.5 -90q0 -47 8 -86h262l-41 -246h-182v-747q0 -89 -25.5 -163t-55.5 -118.5t-92 -90.5t-96.5 -64 t-107.5 -53l-6 -3z" />
<glyph unicode="g" horiz-adv-x="1103" d="M55 498q0 236 143.5 390t370.5 154q74 0 172.5 -13.5t152.5 -25t89 -20.5l-8 -510q-1 -88 36.5 -234t37.5 -233q0 -211 -122 -328.5t-331 -117.5q-189 0 -395 86l75 250q103 -36 166.5 -51t132.5 -15q83 0 133 48t50 134q0 92 -29 168q-75 -192 -278 -192 q-196 0 -296 136.5t-100 373.5zM399 518q0 -54 1.5 -90t7.5 -78t16.5 -66.5t31 -41.5t48.5 -17q63 0 106 101.5t43 238.5v223q-38 17 -84 17q-64 0 -103 -38.5t-53 -99t-14 -149.5z" />
<glyph unicode="h" horiz-adv-x="1110" d="M117 0v1430l323 55v-535q105 92 269 92q295 0 295 -356v-686h-326v639q0 160 -82 160q-58 0 -107 -72.5t-49 -185.5v-541h-323z" />
<glyph unicode="i" horiz-adv-x="583" d="M86 1331q0 85 48.5 138t137.5 53q82 0 129.5 -51t47.5 -130q0 -82 -48.5 -134t-136.5 -52q-83 0 -130.5 50.5t-47.5 125.5zM106 223v805h324v-713q0 -44 13.5 -61.5t43.5 -17.5t54 8l28 -203q-4 -4 -28.5 -14.5t-74 -22.5t-99.5 -12q-117 0 -189 62t-72 169z" />
<glyph unicode="j" horiz-adv-x="559" d="M-82 -236q122 67 163.5 142t41.5 178v944h321v-940q0 -89 -19.5 -163t-52 -128.5t-84.5 -102t-106.5 -81.5t-128.5 -70zM102 1331q0 85 48.5 138t136.5 53q84 0 131 -51t47 -130q0 -83 -48 -134.5t-136 -51.5q-83 0 -131 50.5t-48 125.5z" />
<glyph unicode="k" horiz-adv-x="1099" d="M117 0v1430l323 55v-537q102 94 269 94q131 0 216 -73.5t85 -198.5q0 -50 -12 -94t-31 -75t-42 -56.5t-45.5 -41.5t-41.5 -26.5t-31 -14.5l-12 -5l286 -457h-368q-183 308 -221 512l-3 31q21 3 48.5 12.5t64.5 27.5t61.5 50.5t24.5 73.5q0 46 -23 72t-61 26 q-44 0 -78.5 -21.5t-51.5 -52.5t-25.5 -56t-8.5 -40v-635h-323z" />
<glyph unicode="l" horiz-adv-x="657" d="M106 254v1176l324 55v-1161q0 -49 18 -68.5t64 -19.5q38 0 100 12l31 -203q-121 -53 -266 -53q-134 0 -202.5 73t-68.5 189z" />
<glyph unicode="m" horiz-adv-x="1634" d="M35 961l260 81q7 -7 18.5 -21.5t36.5 -62.5t39 -102q48 93 134.5 139.5t195.5 46.5q167 0 237 -139q102 139 291 139q151 0 215 -92t64 -264v-686h-324v639q0 81 -13.5 120.5t-53.5 39.5q-52 0 -94 -73t-42 -185v-541h-325v639q0 81 -13.5 120.5t-54.5 39.5 q-54 0 -94.5 -75.5t-40.5 -193.5v-530h-324v532q0 91 -11.5 168.5t-28 123.5t-33 78.5t-28.5 45.5z" />
<glyph unicode="n" horiz-adv-x="1140" d="M35 961l260 81q7 -7 18.5 -21.5t37 -62.5t38.5 -102q52 92 144.5 139t205.5 47q295 0 295 -356v-686h-325v639q0 160 -82 160q-61 0 -108.5 -79t-47.5 -206v-514h-324v532q0 91 -11.5 168.5t-28 123.5t-33 78.5t-28.5 45.5z" />
<glyph unicode="o" horiz-adv-x="1064" d="M55 502q0 118 30.5 217t89.5 173t153 115.5t213 41.5q238 0 352.5 -136t114.5 -389q0 -117 -30.5 -215.5t-89.5 -172t-152 -115t-212 -41.5q-239 0 -354 135.5t-115 386.5zM399 524q0 -67 6.5 -118t21.5 -94t44.5 -66t71.5 -23q69 0 96 75t27 206q0 68 -6.5 119t-21.5 94 t-44.5 65.5t-71.5 22.5q-36 0 -61 -21t-38 -61t-18.5 -87.5t-5.5 -111.5z" />
<glyph unicode="p" horiz-adv-x="1124" d="M35 961l260 81q3 -3 9 -9.5t21.5 -28.5t28 -46.5t25.5 -65t18 -83.5q77 233 287 233q189 0 287 -137t98 -375q0 -151 -63.5 -275t-176.5 -195.5t-251 -71.5q-58 0 -107 12v-397l-324 -56v985q0 91 -11.5 168.5t-28 123.5t-33 78.5t-28.5 45.5zM471 240q67 -15 84 -15 q64 0 103 38.5t53 98.5t14 148q0 70 -2.5 113t-12.5 90t-32 69.5t-57 22.5q-62 0 -106 -92t-44 -217v-256z" />
<glyph unicode="q" horiz-adv-x="1093" d="M55 498q0 236 143.5 390t370.5 154q76 0 178 -15t166 -29l64 -15v-1436l-324 56v485q-81 -100 -213 -100q-189 0 -287 136.5t-98 373.5zM399 518q0 -54 1.5 -90t7.5 -78t16.5 -66.5t31 -41.5t48.5 -17q64 0 106.5 102.5t42.5 241.5v219q-38 17 -84 17q-64 0 -103 -38.5 t-53 -99t-14 -149.5z" />
<glyph unicode="r" horiz-adv-x="815" d="M35 961l260 81q7 -7 18.5 -21t36 -61.5t37.5 -101.5q50 96 121 140t168 44q65 0 133 -22l-84 -309q-40 22 -96 22q-53 0 -105.5 -56t-52.5 -155v-522h-324v532q0 91 -11.5 168.5t-28 123.5t-33 78.5t-28.5 45.5z" />
<glyph unicode="s" horiz-adv-x="866" d="M35 74l106 235l35 -17.5t61.5 -29.5t70 -25t73.5 -12q44 0 71 17.5t27 48.5q0 37 -33 68.5t-88 52.5q-154 62 -220 138t-66 191q0 134 97.5 220t264.5 86q91 0 184 -21.5t140 -43.5l47 -21l-103 -230q-42 22 -63 32t-71.5 26t-88.5 16q-34 0 -56 -15.5t-22 -44.5 q0 -59 154 -124q129 -54 192.5 -126.5t63.5 -185.5q0 -139 -97.5 -234t-271.5 -95q-201 0 -407 94z" />
<glyph unicode="t" horiz-adv-x="802" d="M20 782v238h168l35 211l281 61v-272h241l-38 -238h-203v-456q0 -90 94 -90q29 0 66 5.5t59 10.5l22 6l56 -217q-150 -49 -291 -49q-161 0 -244.5 65.5t-83.5 212.5v512h-162z" />
<glyph unicode="u" horiz-adv-x="1140" d="M106 344v684h326v-641q0 -160 82 -160q61 0 108.5 81t47.5 208v512h323v-534q0 -91 11.5 -168.5t28.5 -123t33.5 -78.5t27.5 -46l12 -12l-260 -82q-8 7 -19.5 21.5t-37.5 63t-39 103.5q-52 -92 -144.5 -138t-204.5 -46q-295 0 -295 356z" />
<glyph unicode="v" horiz-adv-x="1075" d="M106 354v674h324v-668q0 -64 18 -103.5t56 -39.5q46 0 81 47.5t54 127.5t28 170t9 190q0 110 -25 276h324q24 -103 24 -260q0 -282 -60.5 -454.5t-179.5 -249t-310 -76.5q-170 0 -256.5 97.5t-86.5 268.5z" />
<glyph unicode="w" horiz-adv-x="1579" d="M106 352v676h324v-668q0 -61 22 -102t60 -41q68 0 99.5 96.5t31.5 309.5v405h324l-1 -60q0 -60 -0.5 -148.5t-1 -181t-1 -171.5t-0.5 -107q0 -61 21.5 -102t59.5 -41q29 0 51.5 19t37 58t24 84.5t14 111t6 124.5t1.5 138q0 48 -3 94.5t-6 74t-8 62.5t-6 45h324 q22 -118 22 -260q0 -284 -56.5 -455t-172.5 -248t-305 -77q-165 0 -246 135q-53 -76 -124.5 -105.5t-178.5 -29.5q-166 0 -239 94.5t-73 269.5z" />
<glyph unicode="x" horiz-adv-x="1046" d="M-27 0l349 541l-306 479h365l123 -197q32 -60 43 -92q13 20 59 109q55 107 66 180h336q-15 -94 -103 -252q-58 -103 -176 -227l332 -541h-361l-135 236q-20 33 -47 92l-47 -92l-141 -236h-357z" />
<glyph unicode="y" horiz-adv-x="1120" d="M106 344v684h326v-641q0 -160 82 -160q58 0 107 79t49 198v524h325l-8 -555q-1 -88 37.5 -234t38.5 -233q0 -212 -121 -329t-330 -117q-188 0 -397 86l76 250q105 -36 168.5 -51t132.5 -15q83 0 132.5 48t49.5 134q0 73 -29 150q-52 -87 -142.5 -130.5t-201.5 -43.5 q-295 0 -295 356z" />
<glyph unicode="z" horiz-adv-x="866" d="M45 0v180l389 606q-102 -4 -143 -4h-189l-41 238h752v-199l-369 -590q87 5 107 5h280v-236h-786z" />
<glyph unicode="{" horiz-adv-x="823" d="M106 412v219q71 15 107.5 67t36.5 133q0 57 -14.5 177.5t-14.5 197.5q0 55 18 103t55.5 88t103.5 63t153 23q133 0 248 -33l-56 -201q-65 17 -98 17q-47 0 -71.5 -25.5t-24.5 -64.5q0 -64 13 -164.5t13 -151.5q0 -123 -42.5 -203.5t-139.5 -136.5q97 -56 139.5 -135.5 t42.5 -200.5q0 -51 -13 -151t-13 -164q0 -39 24.5 -64.5t71.5 -25.5q52 0 98 16l56 -201q-111 -32 -248 -32q-87 0 -153 23t-103.5 62.5t-55.5 87.5t-18 103q0 77 14.5 197.5t14.5 177.5q0 81 -36.5 132.5t-107.5 66.5z" />
<glyph unicode="|" horiz-adv-x="694" d="M188 -258v1753h318v-1753h-318z" />
<glyph unicode="}" horiz-adv-x="823" d="M25 -406l55 201q46 -16 98 -16q47 0 71.5 25.5t24.5 64.5q0 64 -13 164t-13 151q0 121 42.5 200.5t139.5 135.5q-97 56 -139.5 136.5t-42.5 203.5q0 51 13 151.5t13 164.5q0 39 -24.5 64.5t-71.5 25.5q-33 0 -98 -17l-55 201q115 33 247 33q87 0 153 -23t103.5 -63 t55.5 -88t18 -103q0 -77 -14.5 -197.5t-14.5 -177.5q0 -81 36.5 -133t107.5 -67v-219q-71 -15 -107.5 -66.5t-36.5 -132.5q0 -57 14.5 -177.5t14.5 -197.5q0 -55 -18 -103t-55.5 -87.5t-103.5 -62.5t-153 -23q-136 0 -247 32z" />
<glyph unicode="~" horiz-adv-x="1110" d="M86 635q4 8 12 21t35.5 47t58.5 60t80.5 47t102.5 21q54 0 106 -19t86.5 -42t79.5 -42t86 -19q60 0 95 20t83 74l111 -125q-4 -8 -12 -21.5t-35 -47.5t-58 -59.5t-81 -47t-103 -21.5t-104.5 19t-86 42.5t-80 42.5t-87.5 19q-59 0 -93.5 -20t-84.5 -74z" />
<glyph unicode="&#xa1;" horiz-adv-x="673" d="M47 856q0 75 48.5 126.5t131.5 51.5q86 0 134.5 -52.5t48.5 -133.5q0 -80 -47.5 -130t-131.5 -50q-87 0 -135.5 53t-48.5 135zM88 -373v936h297l59 -936h-356z" />
<glyph unicode="&#xa2;" horiz-adv-x="1036" d="M96 631q0 228 111 364.5t297 165.5v178h235v-180q151 -27 240 -137l-148 -145q-45 48 -92 65v-577q85 9 162 38l70 -182q-84 -46 -232 -63v-244h-235v238q-209 20 -308.5 144.5t-99.5 334.5zM408 666q0 -213 96 -273v541q-96 -52 -96 -268z" />
<glyph unicode="&#xa3;" horiz-adv-x="1173" d="M111 190q11 5 26 16.5t36.5 35.5t38 65.5t19.5 91.5l7 84h-119v248h139l10 148q16 200 135.5 319t333.5 119q121 0 209 -36.5t139 -80.5l-124 -217q-65 51 -124 68q-41 12 -85 12q-64 0 -101 -48.5t-45 -121.5l-16 -162h330l-43 -248h-314l-2 -37q-14 -112 -59 -194 q46 4 65 4q39 0 115.5 -6t116.5 -6q56 0 106 15t78 32l96 -228q-18 -11 -51.5 -25.5t-100 -32t-126.5 -17.5q-65 0 -169.5 12t-146.5 12q-111 0 -295 -16z" />
<glyph unicode="&#xa4;" horiz-adv-x="1271" d="M45 131l201 174q-82 121 -82 275t80 276l-197 174l193 195l190 -215q90 43 207 43q114 0 207 -41l188 213l193 -195l-197 -174q82 -122 82 -276q0 -152 -82 -277l199 -172l-195 -194l-190 213q-103 -44 -209 -44q-107 0 -203 44l-190 -213zM401 590q0 -110 67 -185 t167 -75q102 0 169.5 71t67.5 177q0 108 -67.5 183t-169.5 75q-101 0 -167.5 -69.5t-66.5 -176.5z" />
<glyph unicode="&#xa5;" horiz-adv-x="1292" d="M45 1319h358l242 -498l248 498h354l-340 -598h170v-240h-270v-84h270v-241h-270v-156h-336v156h-268v241h268v84h-268v240h180z" />
<glyph unicode="&#xa6;" horiz-adv-x="694" d="M188 -258v770h318v-770h-318zM188 723v772h318v-772h-318z" />
<glyph unicode="&#xa7;" horiz-adv-x="1193" d="M86 471q0 222 246 334q-84 98 -84 217q0 136 97 222.5t265 86.5q159 0 314 -65l-99 -226q-114 50 -170 50q-77 0 -77 -64q0 -20 13 -42.5t47 -53t58 -50.5t82.5 -64t83.5 -64q104 -80 158.5 -161.5t54.5 -187.5q0 -110 -58.5 -193.5t-187.5 -141.5q86 -101 86 -215 q0 -136 -97.5 -224t-264.5 -88q-154 0 -313 68l98 225q101 -49 170 -49q78 0 78 61q0 22 -15.5 46.5t-49 54.5t-65.5 55t-85.5 65t-87.5 68q-96 77 -146.5 156t-50.5 180zM403 504q0 -18 6 -35.5t20.5 -37.5t27 -35t39 -38.5t41.5 -36.5t49 -41t49 -40q125 46 125 131 q0 35 -31.5 77.5t-68 74.5t-102.5 85q-21 16 -32 25q-123 -45 -123 -129z" />
<glyph unicode="&#xa8;" horiz-adv-x="1007" d="M125 1319q0 70 40 115t114 45q68 0 107.5 -44t39.5 -108q0 -70 -40.5 -114t-113.5 -44q-69 0 -108 43t-39 107zM565 1319q0 70 40 115t114 45q68 0 107.5 -44t39.5 -108q0 -70 -40 -114t-113 -44q-69 0 -108.5 43t-39.5 107z" />
<glyph unicode="&#xa9;" horiz-adv-x="1601" d="M76 696q0 209 94 374.5t260.5 257t376.5 91.5q209 0 373 -92t254 -256.5t90 -374.5t-94 -375.5t-260.5 -257.5t-376.5 -92q-209 0 -373 92.5t-254 257.5t-90 375zM299 707q0 -144 63 -266t178.5 -195.5t258.5 -73.5q145 0 260.5 67t179.5 184t64 261q0 145 -63 267.5 t-179 196t-260 73.5q-220 0 -361 -146.5t-141 -367.5zM463 682q0 206 99 320t267 114q154 0 250 -96l-147 -162q-3 1 -13.5 6.5t-17 8.5t-19 5.5t-26.5 2.5q-80 0 -80 -174q0 -179 111 -179q60 0 110 25l58 -211q-8 -6 -32.5 -15.5t-86 -22.5t-129.5 -13q-176 0 -260 102 t-84 289z" />
<glyph unicode="&#xaa;" horiz-adv-x="856" d="M55 1034q0 170 104.5 277.5t286.5 107.5q126 0 279 -39v-350q0 -94 19.5 -166t35.5 -97t31 -38l-207 -63q-64 53 -82 137q-53 -133 -186 -133q-132 0 -206.5 99.5t-74.5 264.5zM336 1047q0 -84 9.5 -130.5t41.5 -46.5q33 0 56.5 64t23.5 149v131q-27 9 -39 9 q-92 0 -92 -176z" />
<glyph unicode="&#xab;" horiz-adv-x="1239" d="M86 502q75 101 192.5 222t197.5 192l81 71l135 -151l-266 -334l266 -334l-135 -154q-12 11 -33.5 29.5t-83 75.5t-117 113t-123 131t-114.5 139zM580 502q74 101 191.5 222t198.5 192l81 71l133 -151l-266 -334l266 -334l-133 -154q-12 11 -34 29.5t-83.5 75.5t-117 113 t-123 131t-113.5 139z" />
<glyph unicode="&#xac;" horiz-adv-x="1073" d="M86 604v238h901v-498h-233v260h-668z" />
<glyph unicode="&#xad;" horiz-adv-x="768" d="M86 535v227h596v-227h-596z" />
<glyph unicode="&#xae;" horiz-adv-x="1196" d="M106 930q0 213 140 351t356 138q215 0 350 -136.5t135 -352.5q0 -215 -139.5 -353.5t-353.5 -138.5q-216 0 -352 138t-136 354zM256 936q0 -154 96 -259.5t242 -105.5q151 0 246.5 97.5t95.5 251.5q0 155 -96 259.5t-246 104.5q-148 0 -243 -97.5t-95 -250.5zM412 666 v522q4 0 67 1t103 1q100 0 151 -33.5t51 -109.5q0 -78 -73 -121q30 -13 49 -51.5t63 -163.5l-133 -47q-6 14 -16 40q-41 104 -60 134.5t-53 31.5h-10v-204h-139zM551 965q15 0 35 4q30 4 42.5 19t12.5 44q0 30 -16 48t-50 18h-24v-133z" />
<glyph unicode="&#xaf;" horiz-adv-x="1007" d="M150 1171v228h677v-228h-677z" />
<glyph unicode="&#xb0;" horiz-adv-x="636" d="M66 1221q0 115 72 185.5t184 70.5q114 0 181.5 -72t67.5 -184q0 -114 -72 -185t-184 -71q-113 0 -181 72.5t-68 183.5zM238 1223q0 -47 23 -74t56 -27q39 0 61.5 26t22.5 73q0 44 -23 70t-61 26q-37 0 -58 -24t-21 -70z" />
<glyph unicode="&#xb1;" horiz-adv-x="1034" d="M106 47v238h287v213h-284v237h284v285h250v-285h285v-237h-285v-213h285v-238h-822z" />
<glyph unicode="&#xb2;" horiz-adv-x="661" d="M55 1339q139 80 297 80q107 0 173.5 -54t66.5 -155q0 -134 -131 -274q-25 -28 -70 -70h219v-194h-547v170q89 76 142 135q70 79 97.5 119t27.5 73q0 24 -10.5 38t-28.5 14q-56 0 -148 -54z" />
<glyph unicode="&#xb3;" horiz-adv-x="681" d="M59 1346q134 73 293 73q108 0 173 -45t65 -131q0 -99 -115 -158q146 -47 146 -180q0 -49 -15.5 -91.5t-48.5 -78.5t-91.5 -57t-137.5 -21q-59 0 -129.5 21.5t-130.5 56.5l67 166q94 -55 174 -55q70 0 70 65q0 26 -13.5 42t-37.5 16q-19 0 -41 -3.5t-35 -6.5l-12 -3 l-62 150q9 2 40 9.5t43.5 12t32.5 13.5t28 20.5t8 26.5t-9 24t-24 9q-55 0 -152 -50z" />
<glyph unicode="&#xb4;" horiz-adv-x="1007" d="M285 1286l372 438l213 -202q-48 -60 -112 -121t-120.5 -105.5t-106.5 -81t-79 -54.5l-30 -19z" />
<glyph unicode="&#xb5;" horiz-adv-x="1148" d="M117 -453v1481h323v-657q0 -65 27.5 -104.5t73.5 -39.5q56 0 96.5 77t40.5 200v524h323v-534q0 -52 4 -99.5t10.5 -84.5t14.5 -70t17.5 -57t18.5 -43.5t18 -33t15 -22t11 -13.5l4 -5l-258 -82q-7 4 -21 21t-37.5 61.5t-37.5 97.5q-65 -176 -217 -176q-53 0 -103 26v-411z " />
<glyph unicode="&#xb6;" horiz-adv-x="1212" d="M106 952q0 206 127 322.5t361 116.5v-879q-237 0 -362.5 118t-125.5 322zM543 -229q59 31 100 66t61 62t30.5 65t12 59t1.5 61v1302h337v-1298q0 -90 -21.5 -164.5t-55 -128t-89 -101.5t-110.5 -81t-131 -70z" />
<glyph unicode="&#xb7;" horiz-adv-x="536" d="M86 631q0 82 48.5 135t135.5 53q84 0 131.5 -50t47.5 -130q0 -81 -48.5 -133.5t-134.5 -52.5q-83 0 -131.5 51.5t-48.5 126.5z" />
<glyph unicode="&#xb8;" horiz-adv-x="1007" d="M229 -434l47 153q65 -28 136 -28q92 0 92 49q0 38 -60 60t-133 22l54 209h202l-24 -107q85 -8 137.5 -54t52.5 -128q0 -113 -75 -169t-193 -56q-133 0 -236 49z" />
<glyph unicode="&#xb9;" horiz-adv-x="583" d="M4 1247q70 24 153.5 65t135.5 89h209v-729h-252v487q-72 -65 -150 -90z" />
<glyph unicode="&#xba;" horiz-adv-x="878" d="M76 1036q0 173 93.5 278t276.5 105q355 0 355 -366q0 -172 -93 -277.5t-274 -105.5q-358 0 -358 366zM358 1053q0 -209 88 -209q74 0 74 196q0 205 -88 205q-74 0 -74 -192z" />
<glyph unicode="&#xbb;" horiz-adv-x="1239" d="M55 168l267 334l-267 334l135 151q12 -11 33.5 -29.5t83 -75t117.5 -112t123.5 -130t114.5 -138.5q-75 -102 -193 -224t-199 -193l-80 -71zM549 168l266 334l-266 334l133 151q12 -11 33.5 -29.5t83 -75t117 -112t123 -130t114.5 -138.5q-75 -102 -192.5 -224 t-198.5 -193l-80 -71z" />
<glyph unicode="&#xbc;" horiz-adv-x="1591" d="M2 1063q71 25 154.5 65.5t134.5 88.5h209v-730h-252v488q-67 -64 -152 -90zM346 -16l576 1233h272l-578 -1233h-270zM905 143v129l162 461h223l-147 -414h98v189l219 41v-230h107l-21 -176h-86v-143h-219v143h-336z" />
<glyph unicode="&#xbd;" horiz-adv-x="1626" d="M2 1063q71 25 154.5 65.5t134.5 88.5h209v-730h-252v488q-67 -64 -152 -90zM346 -16l576 1233h272l-578 -1233h-270zM1022 668q56 33 135 56.5t160 23.5q108 0 175 -54t67 -155q0 -134 -132 -275q-15 -17 -71 -69h219v-195h-547v168q90 76 143 135q67 75 95 117.5 t28 75.5q0 51 -39 51q-53 0 -147 -53z" />
<glyph unicode="&#xbe;" horiz-adv-x="1671" d="M45 1143q136 74 293 74q108 0 172.5 -45t64.5 -132q0 -99 -114 -157q145 -47 145 -181q0 -106 -70.5 -176.5t-222.5 -70.5q-59 0 -129.5 21.5t-130.5 55.5l68 166q94 -55 174 -55q70 0 70 66q0 25 -14 41t-38 16q-19 0 -41 -3t-34 -6l-13 -3l-61 149q8 2 39.5 10t43.5 12 t32 13t28 20.5t8 26.5q0 33 -32 33q-57 0 -152 -49zM410 -16l577 1233h270l-575 -1233h-272zM975 139v127l160 463h223l-148 -416h99v189l219 41v-230h108l-20 -174h-88v-139h-219v139h-334z" />
<glyph unicode="&#xbf;" horiz-adv-x="909" d="M82 -88q0 56 18 112.5t57.5 118t66 97t79.5 100.5q66 82 104 140.5t62 127.5l252 -67q0 -75 -28.5 -151t-69.5 -135.5t-81.5 -113.5t-69 -105.5t-28.5 -92.5t29.5 -74t77.5 -33q34 0 70 10t62 21.5t103 46.5l101 -205q-110 -50 -202.5 -76t-213.5 -26q-183 0 -286 78.5 t-103 226.5zM412 848q0 81 48 133.5t134 52.5q83 0 130.5 -51t47.5 -127q0 -83 -48 -135.5t-134 -52.5q-84 0 -131 50t-47 130z" />
<glyph unicode="&#xc0;" horiz-adv-x="1329" d="M-2 0l526 1386h301l508 -1386h-342l-102 334h-449l-106 -334h-336zM158 1784l204 207l424 -355l-127 -151q-32 9 -77.5 26.5t-121.5 52.5t-158 93t-144 127zM518 584h295q-57 167 -147 456q-64 -215 -148 -456z" />
<glyph unicode="&#xc1;" horiz-adv-x="1329" d="M-2 0l526 1386h301l508 -1386h-342l-102 334h-449l-106 -334h-336zM518 584h295q-57 167 -147 456q-64 -215 -148 -456zM541 1636l424 355l204 -207q-63 -69 -145 -127t-158.5 -93.5t-121 -52.5t-76.5 -26z" />
<glyph unicode="&#xc2;" horiz-adv-x="1329" d="M-2 0l526 1386h301l508 -1386h-342l-102 334h-449l-106 -334h-336zM254 1638l420 361l420 -361l-127 -153q-171 74 -293 160q-115 -81 -295 -160zM518 584h295q-57 167 -147 456q-64 -215 -148 -456z" />
<glyph unicode="&#xc3;" horiz-adv-x="1329" d="M-2 0l526 1386h301l508 -1386h-342l-102 334h-449l-106 -334h-336zM315 1550v205q9 5 25.5 13t64 21t91.5 13q53 0 162.5 -20.5t164.5 -20.5q44 0 85 7.5t60 14.5l19 7v-205q-7 -5 -20.5 -13t-56.5 -21t-87 -13q-55 0 -164.5 20.5t-162.5 20.5q-44 0 -89.5 -7.5 t-68.5 -14.5zM518 584h295q-57 167 -147 456q-64 -215 -148 -456z" />
<glyph unicode="&#xc4;" horiz-adv-x="1329" d="M-2 0l526 1386h301l508 -1386h-342l-102 334h-449l-106 -334h-336zM293 1675q0 71 39.5 115.5t113.5 44.5q68 0 108 -44t40 -108q0 -70 -40.5 -113.5t-113.5 -43.5q-69 0 -108 42.5t-39 106.5zM518 584h295q-57 167 -147 456q-64 -215 -148 -456zM733 1675q0 70 40 115 t114 45q68 0 107.5 -44t39.5 -108q0 -70 -40 -113.5t-113 -43.5q-69 0 -108.5 42.5t-39.5 106.5z" />
<glyph unicode="&#xc5;" horiz-adv-x="1329" d="M-2 0l498 1315q-56 59 -56 158q0 101 64 163t162 62q100 0 159.5 -63t59.5 -162q0 -77 -41 -138l489 -1335h-342l-102 334h-449l-106 -334h-336zM518 584h295q-57 167 -147 456q-64 -215 -148 -456zM592 1475q0 -40 17 -63t44 -26h19q61 6 61 87q0 39 -18.5 61t-52.5 22 q-33 0 -51.5 -21t-18.5 -60z" />
<glyph unicode="&#xc6;" horiz-adv-x="1886" d="M-27 0l836 1386h1014v-247h-545v-297h453l-39 -244h-414v-350h573v-248h-909v334h-397l-191 -334h-381zM684 584h258v493z" />
<glyph unicode="&#xc7;" horiz-adv-x="1124" d="M80 676q0 161 38.5 293t113.5 230t194 152t272 54q79 0 143 -13.5t112 -39.5t81 -53t66 -64l-185 -186q-54 65 -106 90.5t-111 25.5q-129 0 -191.5 -121.5t-62.5 -345.5q0 -109 14 -192t46 -147.5t88 -98t135 -33.5q124 0 266 58l74 -230q-135 -55 -307 -65l-15 -66 q85 -8 138 -54t53 -128q0 -113 -75 -169t-193 -56q-133 0 -236 49l47 153q65 -28 135 -28q93 0 93 49q0 38 -60 60t-133 22l45 174q-479 68 -479 680z" />
<glyph unicode="&#xc8;" horiz-adv-x="1073" d="M98 1784l205 207l424 -355l-127 -151q-32 9 -77.5 26.5t-122 52.5t-158.5 93t-144 127zM127 0v1386h883v-247h-545v-297h453l-39 -244h-414v-350h573v-248h-911z" />
<glyph unicode="&#xc9;" horiz-adv-x="1073" d="M127 0v1386h883v-247h-545v-297h453l-39 -244h-414v-350h573v-248h-911zM481 1636l424 355l205 -207q-63 -69 -145 -127t-159 -93.5t-121.5 -52.5t-76.5 -26z" />
<glyph unicode="&#xca;" horiz-adv-x="1073" d="M127 0v1386h883v-247h-545v-297h453l-39 -244h-414v-350h573v-248h-911zM195 1638l419 361l420 -361l-127 -153q-171 74 -293 160q-115 -81 -295 -160z" />
<glyph unicode="&#xcb;" horiz-adv-x="1073" d="M127 0v1386h883v-247h-545v-297h453l-39 -244h-414v-350h573v-248h-911zM188 1675q0 70 40 115t114 45q68 0 107.5 -44t39.5 -108q0 -70 -40 -113.5t-113 -43.5q-69 0 -108.5 42.5t-39.5 106.5zM629 1675q0 71 39.5 115.5t113.5 44.5q68 0 108 -44t40 -108 q0 -70 -40.5 -113.5t-113.5 -43.5q-69 0 -108 42.5t-39 106.5z" />
<glyph unicode="&#xcc;" horiz-adv-x="591" d="M-209 1784l205 207l424 -355l-127 -151q-32 9 -77.5 26.5t-122 52.5t-158.5 93t-144 127zM127 0v1386h338v-1386h-338z" />
<glyph unicode="&#xcd;" horiz-adv-x="591" d="M127 0v1386h338v-1386h-338zM172 1636l424 355l205 -207q-63 -69 -145 -127t-159 -93.5t-121.5 -52.5t-76.5 -26z" />
<glyph unicode="&#xce;" horiz-adv-x="591" d="M-113 1638l420 361l420 -361l-127 -153q-171 74 -293 160q-115 -81 -295 -160zM127 0v1386h338v-1386h-338z" />
<glyph unicode="&#xcf;" horiz-adv-x="591" d="M-74 1675q0 70 40 115t114 45q68 0 107.5 -44t39.5 -108q0 -70 -40 -113.5t-113 -43.5q-69 0 -108.5 42.5t-39.5 106.5zM127 0v1386h338v-1386h-338zM367 1675q0 71 39.5 115.5t113.5 44.5q68 0 108 -44t40 -108q0 -70 -40.5 -113.5t-113.5 -43.5q-69 0 -108 42.5 t-39 106.5z" />
<glyph unicode="&#xd0;" horiz-adv-x="1325" d="M-16 592v242h143v552q5 0 186 2.5t271 2.5q170 0 299 -52t209 -147.5t119.5 -223.5t39.5 -286q0 -328 -166.5 -507t-506.5 -179q-72 0 -208.5 2t-242.5 2v592h-143zM465 236q52 -3 104 -3q172 0 245 113.5t73 331.5q0 475 -318 475q-23 0 -53 -1t-51 -1v-317h229v-242 h-229v-356z" />
<glyph unicode="&#xd1;" horiz-adv-x="1411" d="M127 0v1386h276l400 -593q11 -17 166 -267q-1 20 -8.5 150t-8.5 180l-6 530h338v-1386h-289l-395 598q-21 30 -88 140.5t-72 117.5q19 -266 19 -324l6 -532h-338zM369 1556v205q9 5 25 13t63.5 21t91.5 13q53 0 163 -20.5t165 -20.5q44 0 85 7.5t60 14.5l18 7v-205 q-7 -5 -20.5 -13t-56 -21t-86.5 -13q-55 0 -165 20.5t-163 20.5q-44 0 -89 -7.5t-68 -14.5z" />
<glyph unicode="&#xd2;" horiz-adv-x="1419" d="M76 676q0 162 40 294.5t118.5 230t203 151t285.5 53.5q159 0 277.5 -48t193 -140t111 -220t36.5 -292q0 -161 -40 -292t-118.5 -226t-202.5 -147t-284 -52q-620 0 -620 688zM221 1784l205 207l424 -355l-127 -151q-32 9 -77.5 26.5t-122 52.5t-158.5 93t-144 127z M440 698q0 -109 13.5 -191t45 -147t88.5 -99t138 -34q252 0 252 457q0 109 -13.5 192.5t-44.5 150.5t-88 102.5t-137 35.5q-254 0 -254 -467z" />
<glyph unicode="&#xd3;" horiz-adv-x="1419" d="M76 676q0 162 40 294.5t118.5 230t203 151t285.5 53.5q159 0 277.5 -48t193 -140t111 -220t36.5 -292q0 -161 -40 -292t-118.5 -226t-202.5 -147t-284 -52q-620 0 -620 688zM440 698q0 -109 13.5 -191t45 -147t88.5 -99t138 -34q252 0 252 457q0 109 -13.5 192.5 t-44.5 150.5t-88 102.5t-137 35.5q-254 0 -254 -467zM602 1636l424 355l205 -207q-63 -69 -145 -127t-159 -93.5t-121.5 -52.5t-76.5 -26z" />
<glyph unicode="&#xd4;" horiz-adv-x="1419" d="M76 676q0 162 40 294.5t118.5 230t203 151t285.5 53.5q159 0 277.5 -48t193 -140t111 -220t36.5 -292q0 -161 -40 -292t-118.5 -226t-202.5 -147t-284 -52q-620 0 -620 688zM317 1638l420 361l420 -361l-127 -153q-171 74 -293 160q-115 -81 -295 -160zM440 698 q0 -109 13.5 -191t45 -147t88.5 -99t138 -34q252 0 252 457q0 109 -13.5 192.5t-44.5 150.5t-88 102.5t-137 35.5q-254 0 -254 -467z" />
<glyph unicode="&#xd5;" horiz-adv-x="1419" d="M76 676q0 162 40 294.5t118.5 230t203 151t285.5 53.5q159 0 277.5 -48t193 -140t111 -220t36.5 -292q0 -161 -40 -292t-118.5 -226t-202.5 -147t-284 -52q-620 0 -620 688zM377 1550v205q9 5 25 13t63.5 21t91.5 13q53 0 163 -20.5t165 -20.5q44 0 85 7.5t60 14.5l19 7 v-205q-7 -5 -20.5 -13t-56.5 -21t-87 -13q-55 0 -165 20.5t-163 20.5q-44 0 -89 -7.5t-68 -14.5zM440 698q0 -109 13.5 -191t45 -147t88.5 -99t138 -34q252 0 252 457q0 109 -13.5 192.5t-44.5 150.5t-88 102.5t-137 35.5q-254 0 -254 -467z" />
<glyph unicode="&#xd6;" horiz-adv-x="1419" d="M76 676q0 162 40 294.5t118.5 230t203 151t285.5 53.5q159 0 277.5 -48t193 -140t111 -220t36.5 -292q0 -161 -40 -292t-118.5 -226t-202.5 -147t-284 -52q-620 0 -620 688zM338 1675q0 70 40 115t114 45q68 0 107.5 -44t39.5 -108q0 -70 -40.5 -113.5t-113.5 -43.5 q-69 0 -108 42.5t-39 106.5zM440 698q0 -109 13.5 -191t45 -147t88.5 -99t138 -34q252 0 252 457q0 109 -13.5 192.5t-44.5 150.5t-88 102.5t-137 35.5q-254 0 -254 -467zM778 1675q0 70 40 115t114 45q68 0 107.5 -44t39.5 -108q0 -70 -40 -113.5t-113 -43.5 q-69 0 -108.5 42.5t-39.5 106.5z" />
<glyph unicode="&#xd7;" horiz-adv-x="1071" d="M106 362l250 250l-241 244l174 172l241 -242l250 248l183 -184l-248 -248l246 -246l-175 -172l-243 244l-252 -250z" />
<glyph unicode="&#xd8;" horiz-adv-x="1419" d="M76 676q0 162 40 294.5t118.5 230t203 151t285.5 53.5q63 0 135 -10l60 133l286 -115l-63 -141q200 -177 200 -567q0 -161 -40 -292t-118.5 -226t-202.5 -147t-284 -52q-76 0 -131 8l-61 -139l-285 116l62 140q-205 167 -205 563zM440 698q0 -112 15 -200l297 661 q-27 6 -58 6q-254 0 -254 -467zM672 231q16 -4 53 -4q252 0 252 457q0 113 -14 193z" />
<glyph unicode="&#xd9;" horiz-adv-x="1368" d="M106 543v843h336v-825q0 -313 254 -313q110 0 169 79.5t59 233.5v825h338v-843q0 -91 -19.5 -170.5t-64 -151t-111.5 -122.5t-168.5 -81t-228.5 -30q-122 0 -219 30t-160.5 81t-106 123t-60.5 151.5t-18 169.5zM168 1784l205 207l424 -355l-127 -151q-32 9 -77.5 26.5 t-122 52.5t-158.5 93t-144 127z" />
<glyph unicode="&#xda;" horiz-adv-x="1368" d="M106 543v843h336v-825q0 -313 254 -313q110 0 169 79.5t59 233.5v825h338v-843q0 -91 -19.5 -170.5t-64 -151t-111.5 -122.5t-168.5 -81t-228.5 -30q-122 0 -219 30t-160.5 81t-106 123t-60.5 151.5t-18 169.5zM549 1636l424 355l205 -207q-63 -69 -145 -127t-159 -93.5 t-121.5 -52.5t-76.5 -26z" />
<glyph unicode="&#xdb;" horiz-adv-x="1368" d="M106 543v843h336v-825q0 -313 254 -313q110 0 169 79.5t59 233.5v825h338v-843q0 -91 -19.5 -170.5t-64 -151t-111.5 -122.5t-168.5 -81t-228.5 -30q-122 0 -219 30t-160.5 81t-106 123t-60.5 151.5t-18 169.5zM264 1638l420 361l420 -361l-127 -153q-171 74 -293 160 q-115 -81 -295 -160z" />
<glyph unicode="&#xdc;" horiz-adv-x="1368" d="M106 543v843h336v-825q0 -313 254 -313q110 0 169 79.5t59 233.5v825h338v-843q0 -91 -19.5 -170.5t-64 -151t-111.5 -122.5t-168.5 -81t-228.5 -30q-122 0 -219 30t-160.5 81t-106 123t-60.5 151.5t-18 169.5zM313 1675q0 70 40 115t114 45q68 0 107.5 -44t39.5 -108 q0 -70 -40 -113.5t-113 -43.5q-69 0 -108.5 42.5t-39.5 106.5zM754 1675q0 71 39.5 115.5t113.5 44.5q68 0 108 -44t40 -108q0 -70 -40.5 -113.5t-113.5 -43.5q-69 0 -108 42.5t-39 106.5z" />
<glyph unicode="&#xdd;" horiz-adv-x="1175" d="M-16 1386h356l246 -530l252 530h352l-442 -872v-514h-336v532zM467 1636l424 355l205 -207q-63 -69 -145 -127t-159 -93.5t-121.5 -52.5t-76.5 -26z" />
<glyph unicode="&#xde;" d="M127 0v1386h338v-241h88q258 0 392 -110t134 -312q0 -215 -146 -326.5t-407 -111.5h-61v-285h-338zM465 518h86q71 0 117.5 51t46.5 138q0 52 -15.5 95.5t-56.5 75.5t-102 33q-44 0 -76 -4v-389z" />
<glyph unicode="&#xdf;" horiz-adv-x="1275" d="M-41 -287q205 107 205 316v983q0 103 39 193.5t110.5 158.5t180 107.5t239.5 39.5q107 0 189 -28t129 -74t70.5 -99.5t23.5 -111.5q0 -65 -24.5 -116t-59 -81t-69 -55.5t-59 -53.5t-24.5 -61q0 -32 18 -58.5t46 -47.5t62.5 -43.5t69 -52.5t62.5 -67.5t46 -95t18 -128.5 q0 -150 -107.5 -251t-289.5 -101q-161 0 -289 74l-1 1h-1l98 218q86 -39 131 -39q119 0 119 104q0 40 -22.5 73.5t-56 55.5t-73 51t-73 58.5t-56 79.5t-22.5 112q0 52 23 97t55 76.5t64.5 61.5t55.5 65t23 73q0 53 -39.5 80.5t-101.5 27.5q-89 0 -135 -70t-46 -190v-944 q0 -66 -12.5 -123.5t-32 -101t-52 -82t-65 -65.5t-79 -54t-85.5 -44.5t-93 -39.5z" />
<glyph unicode="&#xe0;" d="M55 498q0 236 143.5 390t370.5 154q48 0 107 -6t109.5 -15t94 -17.5t70.5 -14.5l27 -6v-489q0 -91 11.5 -168.5t28.5 -123t33.5 -78.5t27.5 -46l12 -12l-261 -82q-8 8 -21 23t-39.5 68t-37.5 113q-71 -200 -280 -200q-196 0 -296 136.5t-100 373.5zM137 1522l213 202 l375 -438l-137 -145q-1 1 -22.5 14.5t-47.5 31t-62.5 43.5t-76.5 58t-81 68t-83.5 79t-77.5 87zM399 518q0 -54 1.5 -90t7.5 -78t16.5 -66.5t31 -41.5t48.5 -17q62 0 105.5 97.5t43.5 228.5v237q-38 17 -84 17q-64 0 -103 -38.5t-53 -99t-14 -149.5z" />
<glyph unicode="&#xe1;" d="M55 498q0 236 143.5 390t370.5 154q48 0 107 -6t109.5 -15t94 -17.5t70.5 -14.5l27 -6v-489q0 -91 11.5 -168.5t28.5 -123t33.5 -78.5t27.5 -46l12 -12l-261 -82q-8 8 -21 23t-39.5 68t-37.5 113q-71 -200 -280 -200q-196 0 -296 136.5t-100 373.5zM399 518 q0 -54 1.5 -90t7.5 -78t16.5 -66.5t31 -41.5t48.5 -17q62 0 105.5 97.5t43.5 228.5v237q-38 17 -84 17q-64 0 -103 -38.5t-53 -99t-14 -149.5zM446 1286l373 438l213 -202q-48 -60 -112 -121t-120.5 -105.5t-106.5 -81t-79 -54.5l-30 -19z" />
<glyph unicode="&#xe2;" d="M55 498q0 236 143.5 390t370.5 154q48 0 107 -6t109.5 -15t94 -17.5t70.5 -14.5l27 -6v-489q0 -91 11.5 -168.5t28.5 -123t33.5 -78.5t27.5 -46l12 -12l-261 -82q-8 8 -21 23t-39.5 68t-37.5 113q-71 -200 -280 -200q-196 0 -296 136.5t-100 373.5zM178 1292l400 404 l397 -404l-125 -151q-153 78 -272 168q-113 -86 -275 -168zM399 518q0 -54 1.5 -90t7.5 -78t16.5 -66.5t31 -41.5t48.5 -17q62 0 105.5 97.5t43.5 228.5v237q-38 17 -84 17q-64 0 -103 -38.5t-53 -99t-14 -149.5z" />
<glyph unicode="&#xe3;" d="M55 498q0 236 143.5 390t370.5 154q48 0 107 -6t109.5 -15t94 -17.5t70.5 -14.5l27 -6v-489q0 -91 11.5 -168.5t28.5 -123t33.5 -78.5t27.5 -46l12 -12l-261 -82q-8 8 -21 23t-39.5 68t-37.5 113q-71 -200 -280 -200q-196 0 -296 136.5t-100 373.5zM248 1200v205 q9 5 25 13t63.5 21t91.5 13q53 0 163 -20.5t165 -20.5q44 0 85 7.5t60 14.5l19 7v-205q-7 -5 -20.5 -13t-56.5 -21t-87 -13q-55 0 -165 20.5t-163 20.5q-44 0 -89 -7.5t-68 -14.5zM399 518q0 -54 1.5 -90t7.5 -78t16.5 -66.5t31 -41.5t48.5 -17q62 0 105.5 97.5t43.5 228.5 v237q-38 17 -84 17q-64 0 -103 -38.5t-53 -99t-14 -149.5z" />
<glyph unicode="&#xe4;" d="M55 498q0 236 143.5 390t370.5 154q48 0 107 -6t109.5 -15t94 -17.5t70.5 -14.5l27 -6v-489q0 -91 11.5 -168.5t28.5 -123t33.5 -78.5t27.5 -46l12 -12l-261 -82q-8 8 -21 23t-39.5 68t-37.5 113q-71 -200 -280 -200q-196 0 -296 136.5t-100 373.5zM217 1358q0 70 40 115 t114 45q68 0 107.5 -44t39.5 -108q0 -70 -40 -114t-113 -44q-69 0 -108.5 43t-39.5 107zM399 518q0 -54 1.5 -90t7.5 -78t16.5 -66.5t31 -41.5t48.5 -17q62 0 105.5 97.5t43.5 228.5v237q-38 17 -84 17q-64 0 -103 -38.5t-53 -99t-14 -149.5zM657 1358q0 70 40 115t114 45 q68 0 107.5 -44t39.5 -108q0 -70 -40 -114t-113 -44q-69 0 -108.5 43t-39.5 107z" />
<glyph unicode="&#xe5;" d="M55 498q0 236 143.5 390t370.5 154q48 0 107 -6t109.5 -15t94 -17.5t70.5 -14.5l27 -6v-489q0 -91 11.5 -168.5t28.5 -123t33.5 -78.5t27.5 -46l12 -12l-261 -82q-8 8 -21 23t-39.5 68t-37.5 113q-71 -200 -280 -200q-196 0 -296 136.5t-100 373.5zM344 1337 q0 101 63.5 163.5t161.5 62.5q100 0 159.5 -63.5t59.5 -162.5q0 -101 -63 -163t-162 -62t-159 64t-60 161zM399 518q0 -54 1.5 -90t7.5 -78t16.5 -66.5t31 -41.5t48.5 -17q62 0 105.5 97.5t43.5 228.5v237q-38 17 -84 17q-64 0 -103 -38.5t-53 -99t-14 -149.5zM496 1339 q0 -42 20 -65t49 -23q72 0 72 86q0 39 -19 61.5t-53 22.5q-33 0 -51 -21.5t-18 -60.5z" />
<glyph unicode="&#xe6;" horiz-adv-x="1560" d="M55 498q0 236 143.5 390t370.5 154q154 0 312 -67q121 74 280 74q183 0 271 -84.5t88 -225.5q0 -151 -143.5 -256t-385.5 -125q30 -137 166 -137q53 0 125.5 16.5t119.5 32.5l46 17l61 -213q-21 -10 -57.5 -25.5t-142.5 -41t-203 -25.5q-272 0 -389 182 q-78 -176 -266 -176q-196 0 -296 136.5t-100 373.5zM399 518q0 -54 1.5 -90t7.5 -78t16.5 -66.5t31 -41.5t48.5 -17q46 0 83.5 58t55.5 151q-4 50 -4 80q0 62 16 132.5t43 121.5q-66 37 -129 37q-64 0 -103 -38.5t-53 -99t-14 -149.5zM975 565q109 3 166 55t57 111 q0 38 -22.5 62t-55.5 24q-49 0 -82.5 -40t-47 -94t-15.5 -118z" />
<glyph unicode="&#xe7;" horiz-adv-x="858" d="M55 485q0 269 138.5 416.5t359.5 147.5q96 0 173 -39.5t126 -106.5l-160 -166q-30 35 -56 52.5t-63 17.5q-24 0 -44.5 -4.5t-45.5 -22t-42.5 -47t-29.5 -84.5t-12 -129t13 -129.5t32.5 -86.5t48 -49.5t54 -24t55.5 -5.5q49 0 172 41l60 -215q-3 -3 -28 -14.5t-81.5 -28 t-116.5 -22.5l-14 -62q85 -8 137.5 -54t52.5 -128q0 -113 -75 -169t-193 -56q-132 0 -235 49l47 153q65 -28 135 -28q92 0 92 49q0 38 -60 60t-133 22l44 170q-179 33 -265 161t-86 332z" />
<glyph unicode="&#xe8;" horiz-adv-x="980" d="M55 485q0 134 40 242t110.5 178t164.5 107t205 37q183 0 271 -84.5t88 -225.5q0 -151 -143 -256t-385 -125q30 -137 167 -137q53 0 125.5 16.5t119.5 32.5l46 17l62 -213q-21 -10 -58 -25.5t-143.5 -41t-202.5 -25.5q-241 0 -354 133t-113 370zM94 1522l213 202l375 -438 l-137 -145q-1 1 -22.5 14.5t-47.5 31t-62.5 43.5t-76.5 58t-81 68t-83.5 79t-77.5 87zM389 565q110 3 166.5 55t56.5 111q0 38 -21.5 62t-55.5 24q-49 0 -82.5 -40t-47.5 -94t-16 -118z" />
<glyph unicode="&#xe9;" horiz-adv-x="980" d="M55 485q0 134 40 242t110.5 178t164.5 107t205 37q183 0 271 -84.5t88 -225.5q0 -151 -143 -256t-385 -125q30 -137 167 -137q53 0 125.5 16.5t119.5 32.5l46 17l62 -213q-21 -10 -58 -25.5t-143.5 -41t-202.5 -25.5q-241 0 -354 133t-113 370zM389 565q110 3 166.5 55 t56.5 111q0 38 -21.5 62t-55.5 24q-49 0 -82.5 -40t-47.5 -94t-16 -118zM401 1286l373 438l213 -202q-48 -60 -112 -121t-120.5 -105.5t-106.5 -81t-80 -54.5l-29 -19z" />
<glyph unicode="&#xea;" horiz-adv-x="980" d="M55 485q0 134 40 242t110.5 178t164.5 107t205 37q183 0 271 -84.5t88 -225.5q0 -151 -143 -256t-385 -125q30 -137 167 -137q53 0 125.5 16.5t119.5 32.5l46 17l62 -213q-21 -10 -58 -25.5t-143.5 -41t-202.5 -25.5q-241 0 -354 133t-113 370zM133 1292l399 404 l398 -404l-125 -151q-156 79 -273 168q-116 -87 -274 -168zM389 565q110 3 166.5 55t56.5 111q0 38 -21.5 62t-55.5 24q-49 0 -82.5 -40t-47.5 -94t-16 -118z" />
<glyph unicode="&#xeb;" horiz-adv-x="980" d="M55 485q0 134 40 242t110.5 178t164.5 107t205 37q183 0 271 -84.5t88 -225.5q0 -151 -143 -256t-385 -125q30 -137 167 -137q53 0 125.5 16.5t119.5 32.5l46 17l62 -213q-21 -10 -58 -25.5t-143.5 -41t-202.5 -25.5q-241 0 -354 133t-113 370zM172 1358q0 70 40 115 t114 45q68 0 107.5 -44t39.5 -108q0 -70 -40.5 -114t-113.5 -44q-69 0 -108 43t-39 107zM389 565q110 3 166.5 55t56.5 111q0 38 -21.5 62t-55.5 24q-49 0 -82.5 -40t-47.5 -94t-16 -118zM612 1358q0 70 40 115t114 45q68 0 107.5 -44t39.5 -108q0 -70 -40 -114t-113 -44 q-69 0 -108.5 43t-39.5 107z" />
<glyph unicode="&#xec;" horiz-adv-x="565" d="M-127 1489l213 201l299 -439l-137 -145q-23 19 -61.5 53t-138 134t-175.5 196zM86 223v805h324v-713q0 -44 13.5 -61.5t43.5 -17.5q37 0 53 8l29 -203q-4 -4 -28.5 -14.5t-74.5 -22.5t-100 -12q-117 0 -188.5 62t-71.5 169z" />
<glyph unicode="&#xed;" horiz-adv-x="565" d="M86 223v805h324v-713q0 -44 13.5 -61.5t43.5 -17.5q37 0 53 8l29 -203q-4 -4 -28.5 -14.5t-74.5 -22.5t-100 -12q-117 0 -188.5 62t-71.5 169zM88 1251l297 439l215 -201q-77 -96 -171 -191.5t-149 -143.5l-55 -48z" />
<glyph unicode="&#xee;" horiz-adv-x="565" d="M-125 1249l375 377l375 -377l-127 -149q-139 82 -248 170q-118 -95 -248 -170zM86 223v805h324v-713q0 -44 13.5 -61.5t43.5 -17.5q37 0 53 8l29 -203q-4 -4 -28.5 -14.5t-74.5 -22.5t-100 -12q-117 0 -188.5 62t-71.5 169z" />
<glyph unicode="&#xef;" horiz-adv-x="565" d="M-76 1319q0 69 40 113.5t112 44.5q68 0 107.5 -44t39.5 -108q0 -69 -40 -112.5t-113 -43.5q-68 0 -107 43t-39 107zM86 223v805h324v-713q0 -44 13.5 -61.5t43.5 -17.5q37 0 53 8l29 -203q-4 -4 -28.5 -14.5t-74.5 -22.5t-100 -12q-117 0 -188.5 62t-71.5 169zM279 1319 q0 69 40.5 113.5t112.5 44.5q68 0 107 -44t39 -108q0 -69 -39.5 -112.5t-112.5 -43.5q-68 0 -107.5 43t-39.5 107z" />
<glyph unicode="&#xf0;" horiz-adv-x="1048" d="M55 500q0 154 52.5 274t159 191t253.5 71q75 0 148 -32q-11 35 -52 124l-204 -57l-47 184l116 21l-104 74l158 190q126 -77 225 -197l205 62l47 -184l-148 -31q144 -263 144 -651q0 -166 -52.5 -290t-163 -196.5t-268.5 -72.5q-238 0 -353.5 136.5t-115.5 383.5zM399 522 q0 -66 6.5 -116t21.5 -93.5t44.5 -66.5t71.5 -23q36 0 61 21.5t38 62.5t18.5 87.5t5.5 107.5q0 66 -6.5 115.5t-21.5 91.5t-44.5 64t-71.5 22q-36 0 -61 -20.5t-38 -59t-18.5 -85t-5.5 -108.5z" />
<glyph unicode="&#xf1;" horiz-adv-x="1140" d="M35 961l260 81q7 -7 18.5 -21.5t37 -62.5t38.5 -102q52 92 144.5 139t205.5 47q295 0 295 -356v-686h-325v639q0 160 -82 160q-61 0 -108.5 -79t-47.5 -206v-514h-324v532q0 91 -11.5 168.5t-28 123.5t-33 78.5t-28.5 45.5zM348 1200v205q9 5 25 13t63.5 21t91.5 13 q53 0 163 -20.5t165 -20.5q44 0 85 7.5t60 14.5l19 7v-205q-7 -5 -20.5 -13t-56.5 -21t-87 -13q-55 0 -165 20.5t-163 20.5q-44 0 -89 -7.5t-68 -14.5z" />
<glyph unicode="&#xf2;" horiz-adv-x="1064" d="M55 502q0 118 30.5 217t89.5 173t153 115.5t213 41.5q238 0 352.5 -136t114.5 -389q0 -117 -30.5 -215.5t-89.5 -172t-152 -115t-212 -41.5q-239 0 -354 135.5t-115 386.5zM92 1522l213 202l375 -438l-137 -145q-1 1 -22.5 14.5t-47.5 31t-62.5 43.5t-76.5 58t-81 68 t-83.5 79t-77.5 87zM399 524q0 -67 6.5 -118t21.5 -94t44.5 -66t71.5 -23q69 0 96 75t27 206q0 68 -6.5 119t-21.5 94t-44.5 65.5t-71.5 22.5q-36 0 -61 -21t-38 -61t-18.5 -87.5t-5.5 -111.5z" />
<glyph unicode="&#xf3;" horiz-adv-x="1064" d="M55 502q0 118 30.5 217t89.5 173t153 115.5t213 41.5q238 0 352.5 -136t114.5 -389q0 -117 -30.5 -215.5t-89.5 -172t-152 -115t-212 -41.5q-239 0 -354 135.5t-115 386.5zM399 524q0 -67 6.5 -118t21.5 -94t44.5 -66t71.5 -23q69 0 96 75t27 206q0 68 -6.5 119t-21.5 94 t-44.5 65.5t-71.5 22.5q-36 0 -61 -21t-38 -61t-18.5 -87.5t-5.5 -111.5zM401 1286l373 438l213 -202q-48 -60 -112 -121t-120.5 -105.5t-106.5 -81t-80 -54.5l-29 -19z" />
<glyph unicode="&#xf4;" horiz-adv-x="1064" d="M55 502q0 118 30.5 217t89.5 173t153 115.5t213 41.5q238 0 352.5 -136t114.5 -389q0 -117 -30.5 -215.5t-89.5 -172t-152 -115t-212 -41.5q-239 0 -354 135.5t-115 386.5zM133 1292l399 404l398 -404l-125 -151q-156 79 -273 168q-116 -87 -274 -168zM399 524 q0 -67 6.5 -118t21.5 -94t44.5 -66t71.5 -23q69 0 96 75t27 206q0 68 -6.5 119t-21.5 94t-44.5 65.5t-71.5 22.5q-36 0 -61 -21t-38 -61t-18.5 -87.5t-5.5 -111.5z" />
<glyph unicode="&#xf5;" horiz-adv-x="1064" d="M55 502q0 118 30.5 217t89.5 173t153 115.5t213 41.5q238 0 352.5 -136t114.5 -389q0 -117 -30.5 -215.5t-89.5 -172t-152 -115t-212 -41.5q-239 0 -354 135.5t-115 386.5zM203 1200v205q9 5 25 13t63.5 21t91.5 13q53 0 163 -20.5t165 -20.5q44 0 85 7.5t60 14.5l18 7 v-205q-7 -5 -20.5 -13t-56 -21t-86.5 -13q-55 0 -165 20.5t-163 20.5q-44 0 -89 -7.5t-68 -14.5zM399 524q0 -67 6.5 -118t21.5 -94t44.5 -66t71.5 -23q69 0 96 75t27 206q0 68 -6.5 119t-21.5 94t-44.5 65.5t-71.5 22.5q-36 0 -61 -21t-38 -61t-18.5 -87.5t-5.5 -111.5z " />
<glyph unicode="&#xf6;" horiz-adv-x="1064" d="M55 502q0 118 30.5 217t89.5 173t153 115.5t213 41.5q238 0 352.5 -136t114.5 -389q0 -117 -30.5 -215.5t-89.5 -172t-152 -115t-212 -41.5q-239 0 -354 135.5t-115 386.5zM172 1358q0 70 40 115t114 45q68 0 107.5 -44t39.5 -108q0 -70 -40.5 -114t-113.5 -44 q-69 0 -108 43t-39 107zM399 524q0 -67 6.5 -118t21.5 -94t44.5 -66t71.5 -23q69 0 96 75t27 206q0 68 -6.5 119t-21.5 94t-44.5 65.5t-71.5 22.5q-36 0 -61 -21t-38 -61t-18.5 -87.5t-5.5 -111.5zM612 1358q0 70 40 115t114 45q68 0 107.5 -44t39.5 -108q0 -70 -40 -114 t-113 -44q-69 0 -108.5 43t-39.5 107z" />
<glyph unicode="&#xf7;" horiz-adv-x="1034" d="M106 496v237h820v-237h-820zM369 272q0 66 38 108t107 42q65 0 101 -39.5t36 -103.5t-38 -106t-107 -42q-64 0 -100.5 40.5t-36.5 100.5zM369 948q0 66 37.5 107t107.5 41q65 0 101 -39t36 -103q0 -65 -37.5 -106t-107.5 -41q-64 0 -100.5 40t-36.5 101z" />
<glyph unicode="&#xf8;" horiz-adv-x="1064" d="M55 502q0 118 30.5 217t89.5 173t153 115.5t213 41.5q60 0 123 -13l63 131l203 -94l-66 -133q144 -132 144 -416q0 -117 -30.5 -215.5t-89.5 -172t-152 -115t-212 -41.5q-68 0 -123 12l-63 -131l-203 96l64 129q-144 132 -144 416zM399 498l150 305q-8 2 -27 2 q-36 0 -61 -21t-38 -61t-18.5 -87.5t-5.5 -111.5v-26zM516 225q8 -2 27 -2q69 0 96 75t27 206v26z" />
<glyph unicode="&#xf9;" horiz-adv-x="1140" d="M106 344v684h326v-641q0 -160 82 -160q61 0 108.5 81t47.5 208v512h323v-534q0 -91 11.5 -168.5t28.5 -123t33.5 -78.5t27.5 -46l12 -12l-260 -82q-8 7 -19.5 21.5t-37.5 63t-39 103.5q-52 -92 -144.5 -138t-204.5 -46q-295 0 -295 356zM119 1522l213 202l375 -438 l-138 -145q-1 1 -22.5 14.5t-47 31t-62.5 43.5t-76.5 58t-80.5 68t-83.5 79t-77.5 87z" />
<glyph unicode="&#xfa;" horiz-adv-x="1140" d="M106 344v684h326v-641q0 -160 82 -160q61 0 108.5 81t47.5 208v512h323v-534q0 -91 11.5 -168.5t28.5 -123t33.5 -78.5t27.5 -46l12 -12l-260 -82q-8 7 -19.5 21.5t-37.5 63t-39 103.5q-52 -92 -144.5 -138t-204.5 -46q-295 0 -295 356zM426 1286l373 438l213 -202 q-76 -95 -188.5 -190t-186.5 -143l-74 -48z" />
<glyph unicode="&#xfb;" horiz-adv-x="1140" d="M106 344v684h326v-641q0 -160 82 -160q61 0 108.5 81t47.5 208v512h323v-534q0 -91 11.5 -168.5t28.5 -123t33.5 -78.5t27.5 -46l12 -12l-260 -82q-8 7 -19.5 21.5t-37.5 63t-39 103.5q-52 -92 -144.5 -138t-204.5 -46q-295 0 -295 356zM158 1292l399 404l397 -404 l-125 -151q-153 78 -272 168q-116 -87 -274 -168z" />
<glyph unicode="&#xfc;" horiz-adv-x="1140" d="M106 344v684h326v-641q0 -160 82 -160q61 0 108.5 81t47.5 208v512h323v-534q0 -91 11.5 -168.5t28.5 -123t33.5 -78.5t27.5 -46l12 -12l-260 -82q-8 7 -19.5 21.5t-37.5 63t-39 103.5q-52 -92 -144.5 -138t-204.5 -46q-295 0 -295 356zM197 1358q0 71 39.5 115.5 t113.5 44.5q68 0 108 -44t40 -108q0 -70 -40.5 -114t-113.5 -44q-69 0 -108 43t-39 107zM637 1358q0 70 40 115t114 45q68 0 107.5 -44t39.5 -108q0 -70 -40.5 -114t-113.5 -44q-69 0 -108 43t-39 107z" />
<glyph unicode="&#xfd;" horiz-adv-x="1120" d="M106 344v684h326v-641q0 -160 82 -160q58 0 107 79t49 198v524h325l-8 -555q-1 -88 37.5 -234t38.5 -233q0 -212 -121 -329t-330 -117q-188 0 -397 86l76 250q105 -36 168.5 -51t132.5 -15q83 0 132.5 48t49.5 134q0 73 -29 150q-52 -87 -142.5 -130.5t-201.5 -43.5 q-295 0 -295 356zM424 1286l373 438l213 -202q-76 -95 -188.5 -190t-186.5 -143l-74 -48z" />
<glyph unicode="&#xfe;" horiz-adv-x="1093" d="M117 -453v1883l323 55v-549q80 106 228 106q179 0 274.5 -137.5t95.5 -374.5q0 -151 -63.5 -275t-176.5 -195.5t-251 -71.5q-57 0 -107 12v-397zM440 240q60 -15 84 -15q64 0 103 38.5t53 98.5t14 148q0 55 -1.5 90.5t-7 78t-16.5 67t-31 41t-48 16.5q-61 0 -105.5 -85 t-44.5 -202v-276z" />
<glyph unicode="&#xff;" horiz-adv-x="1120" d="M106 344v684h326v-641q0 -160 82 -160q58 0 107 79t49 198v524h325l-8 -555q-1 -88 37.5 -234t38.5 -233q0 -212 -121 -329t-330 -117q-188 0 -397 86l76 250q105 -36 168.5 -51t132.5 -15q83 0 132.5 48t49.5 134q0 73 -29 150q-52 -87 -142.5 -130.5t-201.5 -43.5 q-295 0 -295 356zM195 1358q0 71 39.5 115.5t113.5 44.5q68 0 108 -44t40 -108q0 -70 -40.5 -114t-113.5 -44q-69 0 -108 43t-39 107zM635 1358q0 71 39.5 115.5t113.5 44.5q68 0 108 -44t40 -108q0 -70 -40.5 -114t-113.5 -44q-69 0 -108 43t-39 107z" />
<glyph unicode="&#x152;" horiz-adv-x="1808" d="M76 676q0 161 38 293t113 230t194 152t273 54q105 0 183 -19h868v-247h-545v-297h455l-41 -244h-414v-350h574v-248h-867q-82 -12 -219 -12q-612 0 -612 688zM440 698q0 -109 13.5 -191t45 -147t88.5 -99t138 -34q65 0 139 9v894q-80 35 -170 35q-254 0 -254 -467z" />
<glyph unicode="&#x153;" horiz-adv-x="1599" d="M55 502q0 118 30.5 217t89.5 173t153 115.5t213 41.5q204 0 321 -123q132 123 332 123q183 0 270.5 -84.5t87.5 -225.5q0 -151 -143 -256t-385 -125q30 -137 168 -137q53 0 125.5 16.5t118.5 32.5l47 17l61 -213q-21 -10 -58 -25.5t-143 -41t-202 -25.5q-203 0 -314 108 q-120 -110 -303 -110q-239 0 -354 135.5t-115 386.5zM399 524q0 -67 6.5 -118t21.5 -94t44.5 -66t71.5 -23q69 0 96 75t27 206q0 68 -6.5 119t-21.5 94t-44.5 65.5t-71.5 22.5q-36 0 -61 -21t-38 -61t-18.5 -87.5t-5.5 -111.5zM1008 565q110 3 166.5 55t56.5 111 q0 38 -22 62t-56 24q-49 0 -82.5 -40t-47 -94t-15.5 -118z" />
<glyph unicode="&#x178;" horiz-adv-x="1175" d="M-16 1386h356l246 -530l252 530h352l-442 -872v-514h-336v532zM209 1675q0 71 39.5 115.5t113.5 44.5q68 0 108 -44t40 -108q0 -70 -40.5 -113.5t-113.5 -43.5q-69 0 -108 42.5t-39 106.5zM649 1675q0 70 40 115t114 45q68 0 107.5 -44t39.5 -108q0 -70 -40 -113.5 t-113 -43.5q-69 0 -108.5 42.5t-39.5 106.5z" />
<glyph unicode="&#x2c6;" horiz-adv-x="1007" d="M86 1292l399 404l398 -404l-125 -151q-156 79 -273 168q-116 -87 -274 -168z" />
<glyph unicode="&#x2dc;" horiz-adv-x="1007" d="M152 1200v205q9 5 25 13t63.5 21t91.5 13q53 0 162.5 -20.5t164.5 -20.5q44 0 85 7.5t60 14.5l19 7v-205q-7 -5 -20.5 -13t-56.5 -21t-87 -13q-55 0 -164.5 20.5t-162.5 20.5q-44 0 -89 -7.5t-68 -14.5z" />
<glyph unicode="&#x2000;" horiz-adv-x="999" />
<glyph unicode="&#x2001;" horiz-adv-x="1999" />
<glyph unicode="&#x2002;" horiz-adv-x="999" />
<glyph unicode="&#x2003;" horiz-adv-x="1999" />
<glyph unicode="&#x2004;" horiz-adv-x="666" />
<glyph unicode="&#x2005;" horiz-adv-x="499" />
<glyph unicode="&#x2006;" horiz-adv-x="333" />
<glyph unicode="&#x2007;" horiz-adv-x="333" />
<glyph unicode="&#x2008;" horiz-adv-x="249" />
<glyph unicode="&#x2009;" horiz-adv-x="399" />
<glyph unicode="&#x200a;" horiz-adv-x="111" />
<glyph unicode="&#x2010;" horiz-adv-x="768" d="M86 535v227h596v-227h-596z" />
<glyph unicode="&#x2011;" horiz-adv-x="768" d="M86 535v227h596v-227h-596z" />
<glyph unicode="&#x2012;" horiz-adv-x="768" d="M86 535v227h596v-227h-596z" />
<glyph unicode="&#x2013;" horiz-adv-x="1024" d="M0 535v227h1024v-227h-1024z" />
<glyph unicode="&#x2014;" horiz-adv-x="1429" d="M0 535v227h1430v-227h-1430z" />
<glyph unicode="&#x2018;" horiz-adv-x="509" d="M55 1018q0 137 80.5 258t241.5 203l117 -162q-123 -92 -123 -232q0 -49 19 -120.5t20 -83.5q-2 -5 -18.5 -15t-62 -22.5t-102.5 -12.5q-90 0 -131 52t-41 135z" />
<glyph unicode="&#x2019;" horiz-adv-x="518" d="M45 995q125 92 125 230q0 50 -20 124t-21 81q6 6 20.5 15t60.5 21.5t103 12.5q89 0 129.5 -51.5t40.5 -133.5q0 -139 -79 -260.5t-240 -202.5z" />
<glyph unicode="&#x201a;" horiz-adv-x="509" d="M45 -197q125 92 125 232q0 50 -20 124t-21 81q6 6 20.5 15t60.5 21.5t103 12.5q89 0 129.5 -52t40.5 -135q0 -137 -79 -258t-240 -202z" />
<glyph unicode="&#x201c;" horiz-adv-x="950" d="M55 1018q0 137 80.5 258t241.5 203l117 -162q-123 -92 -123 -232q0 -49 19 -120.5t20 -83.5q-2 -5 -18.5 -15t-62 -22.5t-102.5 -12.5q-90 0 -131 52t-41 135zM496 1018q0 137 80 258t241 203l117 -162q-123 -92 -123 -232q0 -49 19 -120.5t20 -83.5q-2 -5 -18.5 -15 t-61.5 -22.5t-102 -12.5q-90 0 -131 52t-41 135z" />
<glyph unicode="&#x201d;" horiz-adv-x="950" d="M45 995q125 92 125 232q0 50 -20 124t-21 81q6 6 20.5 15t60.5 21.5t103 12.5q89 0 129.5 -52t40.5 -135q0 -137 -79 -258t-240 -202zM485 995q125 92 125 232q0 50 -20 124t-21 81q6 6 21 15t61 21.5t103 12.5q89 0 129.5 -52t40.5 -135q0 -137 -79.5 -257.5 t-240.5 -202.5z" />
<glyph unicode="&#x201e;" horiz-adv-x="950" d="M45 -197q125 92 125 232q0 50 -20 124t-21 81q6 6 20.5 15t60.5 21.5t103 12.5q89 0 129.5 -52t40.5 -135q0 -137 -79 -258t-240 -202zM485 -197q125 92 125 232q0 50 -20 124t-21 81q6 6 21 15t61 21.5t103 12.5q89 0 129.5 -52t40.5 -135q0 -137 -79.5 -257.5 t-240.5 -202.5z" />
<glyph unicode="&#x2022;" horiz-adv-x="612" d="M86 647q0 100 59.5 159.5t159.5 59.5t159.5 -59.5t59.5 -159.5t-59.5 -159.5t-159.5 -59.5t-159.5 59.5t-59.5 159.5z" />
<glyph unicode="&#x202f;" horiz-adv-x="399" />
<glyph unicode="&#x2039;" horiz-adv-x="747" d="M86 502q75 101 192.5 222t197.5 192l81 71l135 -151l-266 -334l266 -334l-135 -154q-12 11 -33.5 29.5t-83 75.5t-117 113t-123 131t-114.5 139z" />
<glyph unicode="&#x203a;" horiz-adv-x="747" d="M55 168l267 334l-267 334l135 151q12 -11 33.5 -29.5t83 -75t117.5 -112t123.5 -130t114.5 -138.5q-75 -102 -193 -224t-199 -193l-80 -71z" />
<glyph unicode="&#x205f;" horiz-adv-x="499" />
<glyph unicode="&#x20ac;" horiz-adv-x="1269" d="M80 332v239h102q0 3 -1 18.5t-1 24.5q0 8 1 23t1 18h-102v240h135q57 200 201.5 313t367.5 113q78 0 141.5 -13.5t111 -39t80 -52t65.5 -63.5l-183 -184q-53 65 -104 89.5t-109 24.5q-156 0 -213 -188h422l-37 -240h-415q0 -2 -1 -16.5t-1 -22.5q0 -21 6 -45h403 l-37 -239h-295q65 -107 195 -107q18 0 34.5 1t29 2t28.5 4t24.5 4.5t25.5 6.5t24 7t26.5 8t26.5 8l74 -229q-65 -18 -91.5 -24.5t-94 -15.5t-140.5 -9q-433 0 -553 344h-147z" />
<glyph unicode="&#xe000;" horiz-adv-x="1024" d="M0 0v1024h1024v-1024h-1024z" />
</font>
</defs>
</svg>
